• Игры для PS4
  • Игры для PS3
  • Игры для XBOX360
  • Игры для PC
  • Игры для PS2
  • Игры для PSP
  • Для телефонов
  • Музыка
  • Книги / Журналы
  • Обои
  • Опрос
    Удобен ли сайт в использовании?
      0
    • Очень удобен, все понятно1,1,false,300,full
    • Удобен1,2,false,300,full
    • Средне1,3,false,300,full
    • Неудобен, трудно ориентироваться1,4,false,300,full
    • Совсем неудобен1,5,false,300,full
    Статистика
    Всего онлайн -
    Гостей -
    Пользователей -
    Короли трекера
    
    Благодарности () Закрыть
    Информация о фильме
    Название: Ложь, которую мы говорим
    Оригинальное название: Lies We Tell

    Год выхода: 2017
    Жанр: Триллер, мелодрама, криминал
    Режиссер: Миту Мисра
    В ролях: Гэбриел Бирн, Сибилла Дин, Марк Эдди, Жан Уддин, Рис Ричи, Джина МакКи, Николас Фэррел, Эмили Атак, Хариш Патель, Харви Кейтель и другие
    О фильме:
    Проверенному водителю приходится иметь дело с британско-пакистанской любовницей его мертвого нанимателя, её темное прошлое втягивает его в квест по спасению её 16-летней сестры от насильственного брака с их кузином-гангстером.



    Страна: Великобритания, Bradford International Film Associates
    Продолжительность: 01:50:12
    Перевод: Любительский (двухголосый закадровый) | HiWayGrope

    Файл
    Кодек: XviD
    Качество: HDRip
    Видео: 720x304, 24 fps, ~1589 kbps, 0.30 bit/pixel
    Звук:
    Аудио rus: AC3, 48 kHz, 2 ch, 192 Kbps
    Субтитры: отсутствуют

    Реклама: присутствует

    ВНИМАНИЕ! Присутствует ненормативная лексика

    Семпл

    MediaInfo

    General
    Complete name                            : E:Lies.We.Tell.2017.HDRip.HiWayGropeLies.We.Tell.2017.HDRip.HiWayGrope.avi
    Format                                   : AVI
    Format/Info                              : Audio Video Interleave
    File size                                : 1.38 GiB
    Duration                                 : 1h 50mn
    Overall bit rate                         : 1 791 Kbps
    Writing application                      : VirtualDubMod 1.5.10.3 (build 2550/release)
    Writing library                          : VirtualDubMod build 2550/release

    Video
    ID                                       : 0
    Format                                   : MPEG-4 Visual
    Format profile                           : Advanced Simple@L5
    Format settings, BVOP                    : 1
    Format settings, QPel                    : No
    Format settings, GMC                     : No warppoints
    Format settings, Matrix                  : Default (MPEG)
    Codec ID                                 : XVID
    Codec ID/Hint                            : XviD
    Duration                                 : 1h 50mn
    Bit rate                                 : 1 590 Kbps
    Width                                    : 720 pixels
    Height                                   : 304 pixels
    Display aspect ratio                     : 2.35:1
    Frame rate                               : 24.000 fps
    Color space                              : YUV
    Chroma subsampling                       : 4:2:0
    Bit depth                                : 8 bits
    Scan type                                : Progressive
    Compression mode                         : Lossy
    Bits/(Pixel*Frame)                       : 0.303
    Stream size                              : 1.22 GiB (89%)
    Writing library                          : XviD 73

    Audio
    ID                                       : 1
    Format                                   : AC-3
    Format/Info                              : Audio Coding 3
    Mode extension                           : CM (complete main)
    Format settings, Endianness              : Big
    Codec ID                                 : 2000
    Duration                                 : 1h 50mn
    Bit rate mode                            : Constant
    Bit rate                                 : 192 Kbps
    Channel(s)                               : 2 channels
    Channel positions                        : Front: L R
    Sampling rate                            : 48.0 KHz
    Frame rate                               : 31.250 fps (1536 spf)
    Compression mode                         : Lossy
    Stream size                              : 151 MiB (11%)
    Alignment                                : Split accross interleaves
    Interleave, duration                     : 42 ms (1.00 video frame)
    Interleave, preload duration             : 500 ms

    Свернуть


    Инструкция по скачиванию
     1  Качаем uTorrent версии 2.0 и выше
     2  После установки, жмем выше под постером на ссылку Скачать [MediaGet] или Скачать .torrent
     3  Открываем скачанный файл через соответствующий клиент: MediaGet или uTorrent
     4  Ждем пока подключатся участники
     5  Качаем
    Комментарии о  Ложь, которую мы говорим / Lies We Tell | HDRip 
    Ближайшее в кино
    Вверх