• Игры для PS4
  • Игры для PS3
  • Игры для XBOX360
  • Игры для PC
  • Игры для PS2
  • Игры для PSP
  • Для телефонов
  • Музыка
  • Книги / Журналы
  • Обои
  • Опрос
    Откуда Вы о нас узнали?
      0
    • От знакомых2,1,false,300,full
    • Из социальных сетей2,2,false,300,full
    • Из поисковых систем2,3,false,300,full
    • Другое2,4,false,300,full
    Статистика
    Всего онлайн -
    Гостей -
    Пользователей -
    Короли трекера
    Благодарности () Закрыть
    Информация о фильме
    Название: Дикая
    Оригинальное название: Wild
    Год выхода: 2014
    Жанр: Драма, биография
    Режиссер: Жан-Марк Валле
    В ролях: Риз Уизерспун, Лора Дерн, Томас Садоски, Кин МакРей, Микил Хаусмен, У. Эрл Браун, Гэби Хоффманн, Кевин О. Ранкин, Брайан Ван Холт, Клифф Де Янг, Мо, Уилл Кадди, Ли Паркер, Ник Эверсман, Аллес Мист, Рэнди Шульман, Катрин Де Прюм, Курт Конройд, Тед ДеШатле, Джеффри Ньюман

    О фильме:
    В центре сюжета Шерил Стрэйд, раздавленная неудавшимся браком и смертью матери и потерявшая всякую надежду на счастье женщина, отправляется в пешее странствие по территории Pacific Crest Trail — маршруту по наиболее высоким участкам хребта Сьерра-Невада и Каскадных гор. Испытания, выпавшие в этом опасном одиночном путешествии на долю героини, неминуемо исцеляют ее от душевных страданий, но процесс этот будет отнюдь не безболезненным.



    Страна: США
    Студия: Fox Searchlight Pictures, Pacific Standard
    Продолжительность: 01:55:44
    Перевод: Дублированный

    Файл
    Кодек: H.265
    Качество: UHD BDRemux 2160p
    Видео: MPEG-H HEVC HDR, 43.8 Mбит/с, 3840x2160, 23.976 кадр/с
    Звук:
    1. Русский (AC3, 6 ch, 448 Кбит/с) / дублированный (Blu-ray CEE)
    2. Русский (DTS, 6 ch, 768 Кбит/с) / дублированный (Blu-ray EUR)
    3. Украинский (DTS-HD MA, 6 ch, 3294 Кбит/с) / Профессиональный многоголосый (Цікава ідея)
    4. Английский (DTS-HD MA, 6 ch, 3840 Кбит/с)
    Субтитры: Русские, английские (Full, SDH, SDH-Colored)

    Семпл

    MI
    General
    Unique ID                                : 179932559588358715301290293153338480654 (0x875DC01D5EA4B71B5CC2C8441CEBD80E)
    Complete name                            : D:uTorrentDikaja.2014.2160p.HEVC.UHD.HDR.MediaClub.mkv
    Format                                   : Matroska
    Format version                           : Version 4 / Version 2
    File size                                : 42.1 GiB
    Duration                                 : 1 h 55 min
    Overall bit rate                         : 52.1 Mb/s
    Encoded date                             : UTC 2018-02-08 20:06:56
    Writing application                      : mkvmerge v19.0.0 ("Brave Captain") 64-bit
    Writing library                          : libebml v1.3.5 + libmatroska v1.4.8
    Cover                                    : Yes
    Attachments                              : cover.jpg

    Video
    ID                                       : 1
    Format                                   : HEVC
    Format/Info                              : High Efficiency Video Coding
    Format profile                           : Main 10@L5.1@High
    Codec ID                                 : V_MPEGH/ISO/HEVC
    Duration                                 : 1 h 55 min
    Bit rate                                 : 43.8 Mb/s
    Width                                    : 3 840 pixels
    Height                                   : 2 160 pixels
    Display aspect ratio                     : 16:9
    Frame rate mode                          : Constant
    Frame rate                               : 23.976 (24000/1001) FPS
    Color space                              : YUV
    Chroma subsampling                       : 4:2:0 (Type 2)
    Bit depth                                : 10 bits
    Bits/(Pixel*Frame)                       : 0.220
    Stream size                              : 35.4 GiB (84%)
    Title                                    : BDRemux, 20160p, HEVC, UDH, HDR by Silverok
    Default                                  : Yes
    Forced                                   : No
    Color range                              : Limited
    Color primaries                          : BT.2020
    Transfer characteristics                 : PQ
    Matrix coefficients                      : BT.2020 non-constant
    Mastering display color primaries        : Display P3
    Mastering display luminance              : min: 0.0000 cd/m2, max: 1100 cd/m2

    Audio #1
    ID                                       : 2
    Format                                   : AC-3
    Format/Info                              : Audio Coding 3
    Codec ID                                 : A_AC3
    Duration                                 : 1 h 55 min
    Bit rate mode                            : Constant
    Bit rate                                 : 448 kb/s
    Channel(s)                               : 6 channels
    Channel positions                        : Front: L C R, Side: L R, LFE
    Sampling rate                            : 48.0 kHz
    Frame rate                               : 31.250 FPS (1536 SPF)
    Bit depth                                : 16 bits
    Compression mode                         : Lossy
    Stream size                              : 370 MiB (1%)
    Title                                    : дублированный (Blu-ray CEE)
    Language                                 : Russian
    Service kind                             : Complete Main
    Default                                  : Yes
    Forced                                   : No

    Audio #2
    ID                                       : 3
    Format                                   : DTS
    Format/Info                              : Digital Theater Systems
    Codec ID                                 : A_DTS
    Duration                                 : 1 h 55 min
    Bit rate mode                            : Constant
    Bit rate                                 : 768 kb/s
    Channel(s)                               : 6 channels
    Channel positions                        : Front: L C R, Side: L R, LFE
    Sampling rate                            : 48.0 kHz
    Frame rate                               : 93.750 FPS (512 SPF)
    Bit depth                                : 24 bits
    Compression mode                         : Lossy
    Stream size                              : 635 MiB (1%)
    Title                                    : дублированный (Blu-ray EUR)
    Language                                 : Russian
    Default                                  : No
    Forced                                   : No

    Audio #3
    ID                                       : 4
    Format                                   : DTS
    Format/Info                              : Digital Theater Systems
    Format profile                           : MA / Core
    Codec ID                                 : A_DTS
    Duration                                 : 1 h 55 min
    Bit rate mode                            : Variable / Constant
    Bit rate                                 : 3 294 kb/s / 1 509 kb/s
    Channel(s)                               : 6 channels
    Channel positions                        : Front: L C R, Side: L R, LFE
    Sampling rate                            : 48.0 kHz
    Frame rate                               : 93.750 FPS (512 SPF)
    Bit depth                                : 24 bits
    Compression mode                         : Lossless / Lossy
    Stream size                              : 2.66 GiB (6%)
    Title                                    : Профессиональный многоголосый (Blu-ray EUR)
    Language                                 : Ukrainian
    Default                                  : No
    Forced                                   : No

    Audio #4
    ID                                       : 5
    Format                                   : DTS
    Format/Info                              : Digital Theater Systems
    Format profile                           : MA / Core
    Codec ID                                 : A_DTS
    Duration                                 : 1 h 55 min
    Bit rate mode                            : Variable / Constant
    Bit rate                                 : 3 840 kb/s / 1 509 kb/s
    Channel(s)                               : 6 channels
    Channel positions                        : Front: L C R, Side: L R, LFE
    Sampling rate                            : 48.0 kHz
    Frame rate                               : 93.750 FPS (512 SPF)
    Bit depth                                : 24 bits
    Compression mode                         : Lossless / Lossy
    Stream size                              : 3.06 GiB (7%)
    Language                                 : English
    Default                                  : No
    Forced                                   : No

    Text #1
    ID                                       : 6
    Format                                   : UTF-8
    Codec ID                                 : S_TEXT/UTF8
    Codec ID/Info                            : UTF-8 Plain Text
    Duration                                 : 1 h 53 min
    Bit rate                                 : 50 b/s
    Count of elements                        : 1044
    Stream size                              : 42.0 KiB (0%)
    Title                                    : Full
    Language                                 : Russian
    Default                                  : Yes
    Forced                                   : No

    Text #2
    ID                                       : 7
    Format                                   : UTF-8
    Codec ID                                 : S_TEXT/UTF8
    Codec ID/Info                            : UTF-8 Plain Text
    Duration                                 : 1 h 53 min
    Bit rate                                 : 43 b/s
    Count of elements                        : 1315
    Stream size                              : 36.5 KiB (0%)
    Title                                    : Full
    Language                                 : English
    Default                                  : No
    Forced                                   : No

    Text #3
    ID                                       : 8
    Format                                   : UTF-8
    Codec ID                                 : S_TEXT/UTF8
    Codec ID/Info                            : UTF-8 Plain Text
    Duration                                 : 1 h 54 min
    Bit rate                                 : 48 b/s
    Count of elements                        : 1513
    Stream size                              : 40.7 KiB (0%)
    Title                                    : SDH
    Language                                 : English
    Default                                  : No
    Forced                                   : No

    Text #4
    ID                                       : 9
    Format                                   : UTF-8
    Codec ID                                 : S_TEXT/UTF8
    Codec ID/Info                            : UTF-8 Plain Text
    Duration                                 : 1 h 55 min
    Bit rate                                 : 59 b/s
    Count of elements                        : 1515
    Stream size                              : 50.4 KiB (0%)
    Title                                    : SDH-Colored
    Language                                 : English
    Default                                  : No
    Forced                                   : No

    Menu
    00:00:00.000                             : en:en:Chapter 01
    00:02:57.175                             : en:en:Chapter 02
    00:05:48.305                             : en:en:Chapter 03
    00:09:36.908                             : en:en:Chapter 04
    00:12:02.011                             : en:en:Chapter 05
    00:14:56.729                             : en:en:Chapter 06
    00:19:38.343                             : en:en:Chapter 07
    00:22:42.318                             : en:en:Chapter 08
    00:26:09.442                             : en:en:Chapter 09
    00:31:03.987                             : en:en:Chapter 10
    00:33:42.644                             : en:en:Chapter 11
    00:35:58.989                             : en:en:Chapter 12
    00:40:35.599                             : en:en:Chapter 13
    00:44:04.974                             : en:en:Chapter 14
    00:47:38.813                             : en:en:Chapter 15
    00:51:52.025                             : en:en:Chapter 16
    00:54:43.070                             : en:en:Chapter 17
    00:58:57.617                             : en:en:Chapter 18
    01:02:13.438                             : en:en:Chapter 19
    01:04:54.181                             : en:en:Chapter 20
    01:07:52.400                             : en:en:Chapter 21
    01:11:53.182                             : en:en:Chapter 22
    01:15:15.135                             : en:en:Chapter 23
    01:18:05.721                             : en:en:Chapter 24
    01:20:57.935                             : en:en:Chapter 25
    01:23:13.279                             : en:en:Chapter 26
    01:26:39.610                             : en:en:Chapter 27
    01:29:24.399                             : en:en:Chapter 28
    01:32:09.148                             : en:en:Chapter 29
    01:34:41.175                             : en:en:Chapter 30
    01:36:37.457                             : en:en:Chapter 31
    01:38:04.587                             : en:en:Chapter 32
    01:41:03.181                             : en:en:Chapter 33
    01:43:11.100                             : en:en:Chapter 34
    01:47:12.341                             : en:en:Chapter 35
    01:50:33.001                             : en:en:Chapter 36Свернуть


    Скриншоты
    [screen]http://img12.lostpic.net/2018/02/12/c805892b8d104701b7a776bb9937b8d8.png[/screen][screen]http://img12.lostpic.net/2018/02/12/df8b6e9917c4bd9fe44a8d41040cd2e7.png[/screen][screen]http://img12.lostpic.net/2018/02/12/3a26f12f436130e20dc6cad3ab8cbd0a.png[/screen][screen]http://img12.lostpic.net/2018/02/12/3a984d3b4b5d84e62238a94b1a96b3d7.png[/screen][screen]http://img12.lostpic.net/2018/02/12/f96d10958291649585f6e0a283d5e226.png[/screen]Свернуть
    Похожие раздачи Искать похожие
    Инструкция по скачиванию
     1  Качаем uTorrent версии 2.0 и выше
     2  После установки, жмем выше под постером на ссылку Скачать [MediaGet] или Скачать .torrent
     3  Открываем скачанный файл через соответствующий клиент: MediaGet или uTorrent
     4  Ждем пока подключатся участники
     5  Качаем
    Комментарии о  Дикая / Wild | BDRemux 
    Ближайшее в кино
    Вверх