• Игры для PS4
  • Игры для PS3
  • Игры для XBOX360
  • Игры для PC
  • Игры для PS2
  • Игры для PSP
  • Для телефонов
  • Музыка
  • Книги/Журналы
  • Обои
  •  
    Опрос
    Откуда Вы о нас узнали?
      0
    • От знакомых2,1,false,300,full
    • Из социальных сетей2,2,false,300,full
    • Из поисковых систем2,3,false,300,full
    • Другое2,4,false,300,full
    Статистика
    Загрузка...
    Короли трекера
    Пистолет «Питон 357» / Police Python 357 | DVDRip-AVC
    Статус  Проверено
    В закладки
    Модератор: Max

    Пистолет «Питон 357» / Police Python 357 | DVDRip-AVC [Фильмы 1976] скачать торрентом/torrent бесплатно

    Год выхода
    Категории
    Язык
    Закачал
    Max | 12 февраля в 18ч 07м 42с
    Раздел
    Отзывов
    0
    Раздают: 2 Качают: 0 Скачали: 3 Размер: 1.86 GB
    Инфо о раздаче | Благодарности |
    0/5
    0
    0 5 0
    Поддержи нас — расскажи друзьям!
    Orbitum
    Новый интернет-браузер Быстрее загружает сайты Экономит интернет—трафик Меняет оформление страницы ВК Блокирует всю рекламу на сайтах Загружает торренты как

    µTorrent

    клиент
    Объеденяет все твои чаты из соц. сетей в один Проигрывает твою музыку не заходя во ВКонтакте
    Скачать и многое другое... Подробности на сайте производителя
    Год выпуска: 1976
    Жанр:  Триллер
    Режиссер: Ален Корно
    Продюсер: Альбина дю Буарувре
    Актеры: Ив Монтан, Франсуа Перье, Симона Синьоре, Стефания Сандрелли, Матьё Карьер, Вадим Гловна, Клод Бертран, Габриель Дулсе, Алис Рейшен, Тони Рёдель

    Описание:
    Во время ночного задержания двух опасных вооруженных преступников инспектор Ферро неожиданно попадает в объектив фотографа — юной Сильвии. С необычной фотографии и начинается их яркий, стремительный роман. Своенравная и красивая девчонка буквально сводит зрелого мужчину с ума. Однако девушка ведет двойную жизнь…



    Страна: Франция, Германия (ФРГ)
    Продолжительность: 02:01:57
    Перевод: Профессиональный (многоголосый, закадровый)

    Качество видео: DVDRip-AVC
    Видео: AVC/H.264, 720x432, ~1800 Kbps
    Аудио 1: Русский, AC3, 2 ch, 192 Kbps, 48.0 kHz
    Аудио 2: Французский, AC3, 2 ch, 192 Kbps, 48.0 kHz
    Субтитры: Английские

    M/I
    Общее
    Уникальный идентификатор                 : 201865856051027244283516717529246851149 (0x97DDF31F0086062F8AD889DF5B05E04D)
    Полное имя                               : F:DownloadsПистолет «Питон 357». 1976. NNMCLUB.mkv
    Формат                                   : Matroska
    Версия формата                           : Version 4 / Version 2
    Размер файла                             : 1,86 Гбайт
    Продолжительность                        : 2 ч. 1 м.
    Общий поток                              : 2186 Кбит/сек
    Дата кодирования                         : UTC 2018-01-25 13:01:14
    Программа кодирования                    : mkvmerge v7.9.0 ("Birds") 64bit
    Библиотека кодирования                   : libebml v1.3.1 + libmatroska v1.4.2

    Видео
    Идентификатор                            : 1
    Формат                                   : AVC
    Формат/Информация                        : Advanced Video Codec
    Профиль формата                          : High@L4.1
    Настройки формата                        : CABAC / 12 Ref Frames
    Параметр CABAC формата                   : Да
    Параметр RefFrames формата               : 12 кадров
    Идентификатор кодека                     : V_MPEG4/ISO/AVC
    Продолжительность                        : 2 ч. 1 м.
    Битрейт                                  : 1800 Кбит/сек
    Ширина                                   : 720 пикселей
    Высота                                   : 432 пикселя
    Соотношение сторон                       : 5:3
    Режим частоты кадров                     : Постоянный
    Частота кадров                           : 25,000 кадров/сек
    Цветовое пространство                    : YUV
    Субдискретизация насыщенности            : 4:2:0
    Битовая глубина                          : 8 бит
    Тип развёртки                            : Прогрессивная
    Бит/(Пиксели*Кадры)                      : 0.231
    Размер потока                            : 1,53 Гбайт (82%)
    Заголовок                                : Police Python 357
    Библиотека кодирования                   : x264 core 146 r2538 121396c
    Настройки программы                      : cabac=1 / ref=12 / deblock=1:-1:-1 / analyse=0x3:0x113 / me=umh / subme=10 / psy=1 / psy_rd=1.00:0.10 / mixed_ref=1 / me_range=32 / chroma_me=1 / trellis=2 / 8x8dct=1 / cqm=0 / deadzone=21,11 / fast_pskip=0 / chroma_qp_offset=-3 / threads=6 / lookahead_threads=1 / sliced_threads=0 / nr=0 / decimate=0 / interlaced=0 / bluray_compat=0 / constrained_intra=0 / bframes=7 / b_pyramid=2 / b_adapt=2 / b_bias=0 / direct=3 / weightb=1 / open_gop=0 / weightp=2 / keyint=250 / keyint_min=25 / scenecut=40 / intra_refresh=0 / rc_lookahead=60 / rc=2pass / mbtree=1 / bitrate=1800 / ratetol=1.0 / qcomp=0.60 / qpmin=0 / qpmax=69 / qpstep=4 / cplxblur=20.0 / qblur=0.5 / vbv_maxrate=14000 / vbv_bufsize=14000 / nal_hrd=none / filler=0 / ip_ratio=1.40 / aq=1:1.00
    Язык                                     : French
    Default                                  : Да
    Forced                                   : Нет

    Аудио #1
    Идентификатор                            : 2
    Формат                                   : AC-3
    Формат/Информация                        : Audio Coding 3
    Идентификатор кодека                     : A_AC3
    Продолжительность                        : 2 ч. 1 м.
    Вид битрейта                             : Постоянный
    Битрейт                                  : 192 Кбит/сек
    Каналы                                   : 2 канала
    Расположение каналов                     : Front: L R
    Частота                                  : 48,0 КГц
    Частота кадров                           : 31,250 кадров/сек (1536 SPF)
    Битовая глубина                          : 16 бит
    Метод сжатия                             : С потерями
    Размер потока                            : 167 Мбайт (9%)
    Заголовок                                : Многоголосый закадровый
    Язык                                     : Russian
    ServiceKind                      : Complete Main
    Default                                  : Да
    Forced                                   : Нет

    Аудио #2
    Идентификатор                            : 3
    Формат                                   : AC-3
    Формат/Информация                        : Audio Coding 3
    Идентификатор кодека                     : A_AC3
    Продолжительность                        : 2 ч. 1 м.
    Вид битрейта                             : Постоянный
    Битрейт                                  : 192 Кбит/сек
    Каналы                                   : 2 канала
    Расположение каналов                     : Front: L R
    Частота                                  : 48,0 КГц
    Частота кадров                           : 31,250 кадров/сек (1536 SPF)
    Битовая глубина                          : 16 бит
    Метод сжатия                             : С потерями
    Размер потока                            : 167 Мбайт (9%)
    Заголовок                                : Оригинал
    Язык                                     : French
    ServiceKind                     : Complete Main
    Default                                  : Нет
    Forced                                   : Нет

    Текст
    Идентификатор                            : 4
    Формат                                   : UTF-8
    Идентификатор кодека                     : S_TEXT/UTF8
    Идентификатор кодека/Информация          : UTF-8 Plain Text
    Продолжительность                        : 1 ч. 55 м.
    Битрейт                                  : 28 бит/сек
    ElementCount                             : 816
    Размер потока                            : 24,1 Кбайт (0%)
    Заголовок                                : SRT
    Язык                                     : English
    Default                                  : Нет
    Forced                                   : Нет


    Скриншоты
    [img]http://i2.imageban.ru/out/2018/02/12/7e0c4100f1f4aeb7057d5a2b0dba0e53.png[/img][img]http://i6.imageban.ru/out/2018/02/12/cac3ef288f0937dbb9d32a87417a105b.png[/img][img]http://i6.imageban.ru/out/2018/02/12/cb115524284ddff949f55ae8c51c439e.png[/img][img]http://i6.imageban.ru/out/2018/02/12/08836819bff1a89cd73a1d0f4cfa9c0a.png[/img]
    Еще похожие »

    Как скачать?
    1. Качаем UTorrent версии 2.0 и выше отсюда
    2. После установки, жмем на ссылку Скачать торрент.
    3. Открываем его через utorrent.
    4. Ждем пока подключатся участники.
    5. Качаем.


    Комментарии о Пистолет «Питон 357» / Police Python 357 | DVDRip-AVC
    Добавлять комментарии могут только зарегистрированные пользователи

    Зарегистрироваться или Войти


    Ближайшее в кино
    • Клуб миллиардеров дата выхода 19 июля 2018Клуб миллиардеров
      Дата выхода: 19 июля 2018
    • 848004|Паранормальное|19 июля 2018|200|300Паранормальное
      Дата выхода: 19 июля 2018
    • 993589|Килиманджара|19 июля 2018|200|300Килиманджара
      Дата выхода: 19 июля 2018
    • 1002560|Зои|19 июля 2018|200|300Зои
      Дата выхода: 19 июля 2018
    • 1025011|Офисный беспредел|19 июля 2018|200|300Офисный беспредел
      Дата выхода: 19 июля 2018
    • 1024435|Это чертово сердце|19 июля 2018|200|300Это чертово сердце
      Дата выхода: 19 июля 2018
    • 1169286|МУЛЬТ в кино. Выпуск №78. Наше лето!|21 июля 2018|200|300МУЛЬТ в кино. Выпуск №78. Наше лето!
      Дата выхода: 21 июля 2018
    • 926540|Миссия невыполнима: Последствия|26 июля 2018|200|300Миссия невыполнима: Последствия
      Дата выхода: 26 июля 2018
    • 992614|Обитатели|26 июля 2018|200|300Обитатели
      Дата выхода: 26 июля 2018
    • 854458|Белль и Себастьян: Приключения продолжаются|26 июля 2018|200|300Белль и Себастьян: Приключения продолжаются
      Дата выхода: 26 июля 2018
    • 1049478|Убежище дьявола|26 июля 2018|200|300Убежище дьявола
      Дата выхода: 26 июля 2018
    • 1008732|Мектуб, моя любовь|26 июля 2018|200|300Мектуб, моя любовь
      Дата выхода: 26 июля 2018
    • 1049447|Юные титаны, вперед!|26 июля 2018|200|300Юные титаны, вперед!
      Дата выхода: 26 июля 2018
    • 1067608|Свидетели|26 июля 2018|200|300Свидетели
      Дата выхода: 26 июля 2018
    • 933307|Опасная игра Слоун|2 августа 2018|200|300Опасная игра Слоун
      Дата выхода: 2 августа 2018
    Вверх