• Игры для PS3
  • Игры для XBOX360
  • Игры для PC
  • Игры для PS2
  • Игры для PSP
  • Для телефонов
  • Музыка
  • Книги/Журналы
  • Обои
  •  
    Опрос
    Откуда Вы о нас узнали?
      0
    • От знакомых2,1,false,300,full
    • Из социальных сетей2,2,false,300,full
    • Из поисковых систем2,3,false,300,full
    • Другое2,4,false,300,full
    Статистика
    Загрузка...
    Темный мир: Равновесие [Серии 01-12 из 12] | WEB-DLRip
    Статус  Проверено
    В закладки
    Модератор: Max

    Темный мир: Равновесие [Серии 01-12 из 12] | WEB-DLRip [Сериалы 2014] скачать торрентом/torrent бесплатно

    Год выхода
    Категории
    Язык
    Закачал
    Max | 12 февраля в 18ч 50м 55с
    Раздел
    Отзывов
    0
    Раздают: 14 Качают: 2 Скачали: 22 Размер: 2.65 GB
    Инфо о раздаче | Благодарности |
    0/5
    0
    0 5 0
    Поддержи нас — расскажи друзьям!
    Orbitum
    Новый интернет-браузер Быстрее загружает сайты Экономит интернет—трафик Меняет оформление страницы ВК Блокирует всю рекламу на сайтах Загружает торренты как

    µTorrent

    клиент
    Объеденяет все твои чаты из соц. сетей в один Проигрывает твою музыку не заходя во ВКонтакте
    Скачать и многое другое... Подробности на сайте производителя
    Информация о фильме
    Оригинальное название: Темный мир: Равновесие
    Год выпуска: 2014
    Жанр:  Фэнтези, приключения
    Режиссер: Олег Асадулин
    В ролях: Мария Пирогова, Павел Прилучный, Владислав Абашин, Александр Ратников, Евгения Брик, Григорий Скряпкин, Валерия Ланская, Макар Запорожский, Игорь Черневич, Пётр Семак, Алиса Хазанова, Алексей Маклаков, Паулина Андреева, Анна Цуканова-Котт, Юрий Лопарёв, Микаэл Джанибекян, Александр Карамнов, Георгий Марченко, Дарья Андреева, Лидия Байрашевская

    О фильме:
    Из Темного мира в мир людей просачиваются Тени. Каждый день они крадут твою любовь, твои силы, твои эмоции. Энергия человека — их пища. Они бессмертны и умеют принимают человеческий облик. Их — Темный мир, связанный с нашим через Портал. Человечество в безопасности, пока есть Равновесие и Посвященные, его стражники. С виду самые обычные парни и девчонки, они чуют Тень за версту и знают, как вернуть ее обратно во тьму. Но вот темные силы Теней во главе с могущественным Колдуном решают взять реванш. Портал из Темного мира вот-вот будет разрушен. Остается последний шанс на спасение…



    Страна: Россия
    Студия: Централ Партнершип
    Продолжительность: 12 x ~ 00:50:00
    Перевод: Не требуется

    Файл
    Формат: MP4
    Качество: WEB-DLRip | КПК
    Видео: MPEG-4 AVC (x264), 640x360, ~500 kbps, 25.000 fps
    Аудио: AAC LC, 48.0 KHz, 2 ch, 128 Kbps
    Субтитры: Нет

    Семпл



    MI
    Complete name               : F:КИНОTyomnyj.Mir.Ravnovesie.S01.2014.AVC.WEB-DLRip.KPK.GFTyomnyj.Mir.Ravnovesie.s01e03.2014.AVC.WEB-DLRip.KPK.GF.mp4
    Format                      : MPEG-4
    Codec ID                    : M4V  (isom/iso2/avc1)
    File size                   : 229 MiB
    Duration                    : 50 min 29 s
    Overall bit rate mode       : Variable
    Overall bit rate            : 634 kb/s
    Writing application         : Lavf53.19.0

    Video
    ID                          : 1
    Format                      : AVC
    Format/Info                 : Advanced Video Codec
    Format profile              : High@L4.1
    Format settings, CABAC      : Yes
    Format settings, RefFrames  : 8 frames
    Codec ID                    : avc1
    Codec ID/Info               : Advanced Video Coding
    Duration                    : 50 min 29 s
    Bit rate                    : 500 kb/s
    Width                       : 640 pixels
    Height                      : 360 pixels
    Display aspect ratio        : 16:9
    Frame rate mode             : Constant
    Frame rate                  : 25.000 FPS
    Color space                 : YUV
    Chroma subsampling          : 4:2:0
    Bit depth                   : 8 bits
    Scan type                   : Progressive
    Bits/(Pixel*Frame)          : 0.087
    Stream size                 : 180 MiB (79%)
    Writing library             : x264 core 148 r2638 7599210
    Encoding settings           : cabac=1 / ref=8 / deblock=1:-1:-1 / analyse=0x3:0x133 / me=umh / subme=10 / psy=1 / psy_rd=1.00:0.00 / mixed_ref=1 / me_range=24 / chroma_me=1 / trellis=2 / 8x8dct=1 / cqm=0 / deadzone=21,11 / fast_pskip=1 / chroma_qp_offset=-2 / threads=6 / lookahead_threads=1 / sliced_threads=0 / nr=0 / decimate=1 / interlaced=0 / bluray_compat=0 / constrained_intra=0 / bframes=8 / b_pyramid=2 / b_adapt=2 / b_bias=0 / direct=3 / weightb=1 / open_gop=0 / weightp=2 / keyint=250 / keyint_min=126 / scenecut=40 / intra_refresh=0 / rc_lookahead=40 / rc=2pass / mbtree=1 / bitrate=500 / ratetol=1.0 / qcomp=0.60 / qpmin=0 / qpmax=69 / qpstep=4 / cplxblur=20.0 / qblur=0.5 / ip_ratio=1.40 / aq=1:1.00
    Menus                       : 3

    Audio
    ID                          : 2
    Format                      : AAC
    Format/Info                 : Advanced Audio Codec
    Format profile              : LC
    Codec ID                    : 40
    Duration                    : 50 min 29 s
    Bit rate mode               : Variable
    Bit rate                    : 128 kb/s
    Channel(s)                  : 2 channels
    Channel positions           : Front: L R
    Sampling rate               : 48.0 kHz
    Frame rate                  : 46.875 FPS (1024 SPF)
    Compression mode            : Lossy
    Stream size                 : 46.2 MiB (20%)
    Default                     : Yes
    Alternate group             : 1
    Menus                       : 3
    Еще похожие »

    Как скачать?
    1. Качаем UTorrent версии 2.0 и выше отсюда
    2. После установки, жмем на ссылку Скачать торрент.
    3. Открываем его через utorrent.
    4. Ждем пока подключатся участники.
    5. Качаем.


    Комментарии о Темный мир: Равновесие [Серии 01-12 из 12] | WEB-DLRip
    Добавлять комментарии могут только зарегистрированные пользователи

    Зарегистрироваться или Войти


    Ближайшее в кино
    • Невидимый гость дата выхода 31 мая 2018Невидимый гость
      Дата выхода: 31 мая 2018
    • 762500|Красный воробей|31 мая 2018|200|300Красный воробей
      Дата выхода: 31 мая 2018
    • 843121|Как разговаривать с девушками на вечеринках|31 мая 2018|200|300Как разговаривать с девушками на вечеринках
      Дата выхода: 31 мая 2018
    • 965611|Истории призраков|31 мая 2018|200|300Истории призраков
      Дата выхода: 31 мая 2018
    • 1048530|Моя жизнь|31 мая 2018|200|300Моя жизнь
      Дата выхода: 31 мая 2018
    • 1030828|Псы под прикрытием|31 мая 2018|200|300Псы под прикрытием
      Дата выхода: 31 мая 2018
    • 927822|Два хвоста|31 мая 2018|200|300Два хвоста
      Дата выхода: 31 мая 2018
    • 1061480|От семьи не убежишь|31 мая 2018|200|300От семьи не убежишь
      Дата выхода: 31 мая 2018
    • 1057083|Сказки о маме|31 мая 2018|200|300Сказки о маме
      Дата выхода: 31 мая 2018
    • 924311|Мир Юрского периода 2|7 июня 2018|200|300Мир Юрского периода 2
      Дата выхода: 7 июня 2018
    • 1074222|Красотка на всю голову|7 июня 2018|200|300Красотка на всю голову
      Дата выхода: 7 июня 2018
    • 1009413|Лето|7 июня 2018|200|300Лето
      Дата выхода: 7 июня 2018
    • 935794|Первые|7 июня 2018|200|300Первые
      Дата выхода: 7 июня 2018
    • 1112132|Реинкарнация|7 июня 2018|200|300Реинкарнация
      Дата выхода: 7 июня 2018
    • 1118194|Решение о ликвидации|7 июня 2018|200|300Решение о ликвидации
      Дата выхода: 7 июня 2018
    Вверх