• Игры для PS4
  • Игры для PS3
  • Игры для XBOX360
  • Игры для PC
  • Игры для PS2
  • Игры для PSP
  • Для телефонов
  • Музыка
  • Книги / Журналы
  • Обои
  • Опрос
    Откуда Вы о нас узнали?
      0
    • От знакомых2,1,false,300,full
    • Из социальных сетей2,2,false,300,full
    • Из поисковых систем2,3,false,300,full
    • Другое2,4,false,300,full
    Статистика
    Всего онлайн -
    Гостей -
    Пользователей -
    Короли трекера
    Благодарности () Закрыть
    Информация о фильме
    Название: Каратель
    Оригинальное название: The Punisher
    Год выхода: 2017
    Жанр:  Фантастика, боевик, триллер, драма, криминал, приключения
    Режиссер: Энди Годдард, Марк Йобст, Кари Скогланд
    В ролях: Джон Бернтал, Джейсон Р. Мур, Эбон Мосс-Бакрак, Майкл Натансон, Джейми Рэй Ньюман, Эмбер Роуз Рева, Пол Шульц, Даниэль Уэббер, Дебора Энн Уолл

    О фильме:
    События сериала разворачиваются вокруг одинокого мужчины Фрэнка, он бывший морской пехотинец, прошедший через несколько горячих точек. Все началось с трагического события что произошли в жизни главного персонажа. Во время прогулки Касла с семьей в парке произошла кровавая перестрелка между группировками. Всех свидетелей постарались убрать и под огонь попали все..Обвинение не смогло доказать вину гангстеров и они вышли на свободу. Именно это и стало крайней точкой становления Карателя, ведь рассчитывать на правосудие не приходилось вообще. Он начинает охоту на городских преступников, которые обречены на смерть, поскольку Каратель никого не оставит безнаказанным...



    Страна: США
    Студия: Marvel Television
    Продолжительность: 13 x ~ 00:55:00
    Перевод: Профессиональный (многоголосый, закадровый) [AlexFilm]

    Файл
    Формат: MP4
    Качество: WEB-DLRip | КПК
    Видео: MPEG-4 AVC (x264), 640x360, ~500 kbps, 23.976 fps
    Аудио: AAC LC, 48.0 KHz, 2 ch, 128 Kbps
    Субтитры: Нет

    Семпл



    MI
    Complete name               : F:КИНОKaratel".AVC.KPK.GFKaratel".S01.2017.AVC.WEB-DLRip.KPK.AF.GFKaratel".s01e06.2017.AVC.WEB-DLRip.KPK.AF.GF.mp4
    Format                      : MPEG-4
    Codec ID                    : M4V  (isom/iso2/avc1)
    File size                   : 248 MiB
    Duration                    : 54 min 47 s
    Overall bit rate mode       : Variable
    Overall bit rate            : 631 kb/s
    Writing application         : Lavf53.19.0

    Video
    ID                          : 1
    Format                      : AVC
    Format/Info                 : Advanced Video Codec
    Format profile              : High@L4.1
    Format settings, CABAC      : Yes
    Format settings, RefFrames  : 8 frames
    Codec ID                    : avc1
    Codec ID/Info               : Advanced Video Coding
    Duration                    : 54 min 47 s
    Bit rate                    : 500 kb/s
    Width                       : 640 pixels
    Height                      : 360 pixels
    Display aspect ratio        : 16:9
    Frame rate mode             : Constant
    Frame rate                  : 23.976 (24000/1001) FPS
    Color space                 : YUV
    Chroma subsampling          : 4:2:0
    Bit depth                   : 8 bits
    Scan type                   : Progressive
    Bits/(Pixel*Frame)          : 0.091
    Stream size                 : 196 MiB (79%)
    Writing library             : x264 core 148 r2638 7599210
    Encoding settings           : cabac=1 / ref=8 / deblock=1:-2:-2 / analyse=0x3:0x133 / me=umh / subme=10 / psy=1 / psy_rd=1.00:0.00 / mixed_ref=1 / me_range=24 / chroma_me=1 / trellis=2 / 8x8dct=1 / cqm=0 / deadzone=21,11 / fast_pskip=1 / chroma_qp_offset=-2 / threads=6 / lookahead_threads=1 / sliced_threads=0 / nr=0 / decimate=0 / interlaced=0 / bluray_compat=0 / constrained_intra=0 / bframes=8 / b_pyramid=2 / b_adapt=2 / b_bias=0 / direct=3 / weightb=1 / open_gop=0 / weightp=2 / keyint=240 / keyint_min=121 / scenecut=40 / intra_refresh=0 / rc_lookahead=40 / rc=2pass / mbtree=1 / bitrate=500 / ratetol=1.0 / qcomp=0.60 / qpmin=0 / qpmax=69 / qpstep=4 / cplxblur=20.0 / qblur=0.5 / ip_ratio=1.40 / aq=1:1.00
    Menus                       : 3

    Audio
    ID                          : 2
    Format                      : AAC
    Format/Info                 : Advanced Audio Codec
    Format profile              : LC
    Codec ID                    : 40
    Duration                    : 54 min 47 s
    Bit rate mode               : Variable
    Bit rate                    : 128 kb/s
    Channel(s)                  : 2 channels
    Channel positions           : Front: L R
    Sampling rate               : 48.0 kHz
    Frame rate                  : 46.875 FPS (1024 SPF)
    Compression mode            : Lossy
    Stream size                 : 49.3 MiB (20%)
    Default                     : Yes
    Alternate group             : 1
    Menus                       : 3
    Свернуть
    Инструкция по скачиванию
     1  Качаем uTorrent версии 2.0 и выше
     2  После установки, жмем выше под постером на ссылку Скачать [MediaGet] или Скачать .torrent
     3  Открываем скачанный файл через соответствующий клиент: MediaGet или uTorrent
     4  Ждем пока подключатся участники
     5  Качаем
    Комментарии о  Каратель / The Punisher [Сезон 01] | WEB-DLRip 
    Ближайшее в кино
    Вверх