• Игры для PS4
  • Игры для PS3
  • Игры для XBOX360
  • Игры для PC
  • Игры для PS2
  • Игры для PSP
  • Для телефонов
  • Музыка
  • Книги / Журналы
  • Обои
  • Опрос
    Откуда Вы о нас узнали?
      0
    • От знакомых2,1,false,300,full
    • Из социальных сетей2,2,false,300,full
    • Из поисковых систем2,3,false,300,full
    • Другое2,4,false,300,full
    Статистика
    Всего онлайн -
    Гостей -
    Пользователей -
    Короли трекера
    Благодарности () Закрыть
    Информация о фильме
    Название: Рождество в Эль-Камино
    Оригинальное название: El Camino Christmas
    Год выпуска: 2017
    Страна: США
    Жанр: комедия

    Перевод: Любительский многоголосый [HDrezka Studio]
    Субтитры: русские (Full), английские (SDH)
    Примечание: Релиз без рекламы
    Продолжительность: 01:29:16

    Режиссер: Дэвид Е. Талберт
    В ролях: Дэкс Шепард (Deputy Billy Calhoun), Кертвуд Смит (Sheriff Bob Fuller), Люк Граймс (Eric Roth), Эмилио Ривера (Vicente Santos), Кимберли Куинн (Jewels), Купер Торнтон (Stan the Weather Man), Шэрон Мэдден (Edna), Мишель Майлетт (Kate Daniels), Винсент Д’Онофрио (Carl Hooker), Джон Пози (Old Farmer), Ashton Bright (Seth), Маргарита Франко (Dr. Kamjen)

    Описание:
    В центре сюжета - парень, попавший накануне Рождества в нелепую ситуацию. Главный герой оказывается запертым в магазине спиртного вместе с ещё пятью неудачниками.

    Рейтинг:


    Качество: WEBRip-AVC
    Формат: MKV
    Видео: AVC, 1024x428 (2.40:1), 1902 kbps, 23,976 fps, 0,181 bpp
    Аудио №1: русский / AC3 / 2.0 / 48 kHz / 384 kbps / |MVO|
    Аудио №2: английский / AC3 / 5.1 / 48 kHz / 384 kbps /
    Сэмпл

    ОтчетМедиаИнфо

    General
    Unique ID                                : 95304028397927213629011741821086510658 (0x47B2E361CFA893CC05BD4B890DB4AE42)
    Complete name                            : E:El.Camino.Christmas.2017.WEBRip.AVC.MVO.R.G.Resident.mkv
    Format                                   : Matroska
    Format version                           : Version 4 / Version 2
    File size                                : 1.67 GiB
    Duration                                 : 1 h 29 min
    Overall bit rate                         : 2 672 kb/s
    Movie name                               : El Camino Christmas (2017) WEBRip-AVC [MVO] от R.G. Resident
    Encoded date                             : UTC 2018-02-12 16:06:48
    Writing application                      : mkvmerge v20.0.0 ("I Am The Sun") 64-bit
    Writing library                          : libebml v1.3.5 + libmatroska v1.4.8

    Video
    ID                                       : 1
    Format                                   : AVC
    Format/Info                              : Advanced Video Codec
    Format profile                           : High@L4.1
    Format settings, CABAC                   : Yes
    Format settings, ReFrames                : 11 frames
    Codec ID                                 : V_MPEG4/ISO/AVC
    Duration                                 : 1 h 29 min
    Bit rate                                 : 1 902 kb/s
    Width                                    : 1 024 pixels
    Height                                   : 428 pixels
    Display aspect ratio                     : 2.40:1
    Frame rate mode                          : Constant
    Frame rate                               : 23.976 (24000/1001) FPS
    Color space                              : YUV
    Chroma subsampling                       : 4:2:0
    Bit depth                                : 8 bits
    Scan type                                : Progressive
    Bits/(Pixel*Frame)                       : 0.181
    Stream size                              : 1.19 GiB (71%)
    Title                                    : -Lexx-
    Writing library                          : x264 core 152 r2851kMod ba24899
    Encoding settings                        : cabac=1 / ref=11 / deblock=1:-3:-3 / analyse=0x3:0x113 / me=umh / subme=11 / psy=1 / fade_compensate=0.00 / psy_rd=1.00:0.15 / mixed_ref=1 / me_range=48 / chroma_me=1 / trellis=2 / 8x8dct=1 / cqm=0 / deadzone=21,11 / fast_pskip=0 / chroma_qp_offset=-3 / threads=12 / lookahead_threads=3 / sliced_threads=0 / nr=0 / decimate=0 / interlaced=0 / bluray_compat=0 / constrained_intra=0 / bframes=9 / b_pyramid=2 / b_adapt=2 / b_bias=0 / direct=3 / weightb=1 / open_gop=0 / weightp=2 / keyint=240 / keyint_min=23 / scenecut=40 / intra_refresh=0 / rc_lookahead=40 / rc=2pass / mbtree=0 / bitrate=1902 / ratetol=1.0 / qcomp=0.60 / qpmin=0 / qpmax=69 / qpstep=4 / cplxblur=20.0 / qblur=0.5 / vbv_maxrate=50000 / vbv_bufsize=62500 / nal_hrd=none / filler=0 / ip_ratio=1.40 / pb_ratio=1.30 / aq=1:1.00
    Language                                 : English
    Default                                  : Yes
    Forced                                   : No
    Color range                              : Limited
    Color primaries                          : BT.709
    Transfer characteristics                 : BT.709
    Matrix coefficients                      : BT.709

    Audio #1
    ID                                       : 2
    Format                                   : AC-3
    Format/Info                              : Audio Coding 3
    Mode extension                           : CM (complete main)
    Format settings, Endianness              : Big
    Codec ID                                 : A_AC3
    Duration                                 : 1 h 29 min
    Bit rate mode                            : Constant
    Bit rate                                 : 384 kb/s
    Channel(s)                               : 2 channels
    Channel positions                        : Front: L R
    Sampling rate                            : 48.0 kHz
    Frame rate                               : 31.250 FPS (1536 spf)
    Compression mode                         : Lossy
    Stream size                              : 245 MiB (14%)
    Title                                    : MVO | HDrezka Studio
    Language                                 : Russian
    Default                                  : Yes
    Forced                                   : No

    Audio #2
    ID                                       : 3
    Format                                   : AC-3
    Format/Info                              : Audio Coding 3
    Mode extension                           : CM (complete main)
    Format settings, Endianness              : Big
    Codec ID                                 : A_AC3
    Duration                                 : 1 h 29 min
    Bit rate mode                            : Constant
    Bit rate                                 : 384 kb/s
    Channel(s)                               : 6 channels
    Channel positions                        : Front: L C R, Side: L R, LFE
    Sampling rate                            : 48.0 kHz
    Frame rate                               : 31.250 FPS (1536 spf)
    Compression mode                         : Lossy
    Stream size                              : 245 MiB (14%)
    Title                                    : Original
    Language                                 : English
    Default                                  : No
    Forced                                   : No

    Text #1
    ID                                       : 4
    Format                                   : UTF-8
    Codec ID                                 : S_TEXT/UTF8
    Codec ID/Info                            : UTF-8 Plain Text
    Duration                                 : 1 h 28 min
    Bit rate                                 : 121 b/s
    Count of elements                        : 1399
    Stream size                              : 79.5 KiB (0%)
    Title                                    : Full
    Language                                 : Russian
    Default                                  : No
    Forced                                   : No

    Text #2
    ID                                       : 5
    Format                                   : UTF-8
    Codec ID                                 : S_TEXT/UTF8
    Codec ID/Info                            : UTF-8 Plain Text
    Duration                                 : 1 h 28 min
    Bit rate                                 : 78 b/s
    Count of elements                        : 1548
    Stream size                              : 51.0 KiB (0%)
    Title                                    : SDH
    Language                                 : English
    Default                                  : No
    Forced                                   : No

    Свернуть


    Скриншоты
    [screen]http://i3.imageban.ru/out/2018/02/12/7fb776313143f540c5d02e413132bef7.png[/screen][screen]http://i2.imageban.ru/out/2018/02/12/d98866320aa58b5f847340c74c74e146.png[/screen][screen]http://i6.imageban.ru/out/2018/02/12/7d189929a2314e539c0793f080705148.png[/screen][screen]http://i5.imageban.ru/out/2018/02/12/7b996bd8d1e9164d47b3d95407c0e419.png[/screen] Свернуть
    Инструкция по скачиванию
     1  Качаем uTorrent версии 2.0 и выше
     2  После установки, жмем выше под постером на ссылку Скачать [MediaGet] или Скачать .torrent
     3  Открываем скачанный файл через соответствующий клиент: MediaGet или uTorrent
     4  Ждем пока подключатся участники
     5  Качаем
    Комментарии о  Рождество в Эль-Камино / El Camino Christmas | WEBRip-AVC 
    Ближайшее в кино
    Вверх