• Игры для PS3
  • Игры для XBOX360
  • Игры для PC
  • Игры для PS2
  • Игры для PSP
  • Для телефонов
  • Музыка
  • Книги/Журналы
  • Обои
  •  
    Опрос
    Удобен ли сайт в использовании?
      0
    • Очень удобен, все понятно1,1,false,300,full
    • Удобен1,2,false,300,full
    • Средне1,3,false,300,full
    • Неудобен, трудно ориентироваться1,4,false,300,full
    • Совсем неудобен1,5,false,300,full
    Статистика
    Загрузка...
    Военная приемка. Ракетный комплекс Искандер-М [11.02] | WEBRip 720p
    Статус  Проверено
    В закладки
    Модератор: Max

    Военная приемка. Ракетный комплекс Искандер-М [11.02] | WEBRip 720p [Сериалы 2018] скачать торрентом/torrent бесплатно

    Год выхода
    Категории
    Язык
    Закачал
    Аноним | 12 февраля в 21ч 46м 52с
    Раздел
    Отзывов
    0
    Раздают: 4 Качают: 0 Скачали: 39 Размер: 733.87 MB
    Инфо о раздаче | Благодарности |
    0/5
    0
    0 5 0
    Поддержи нас — расскажи друзьям!
    Orbitum
    Новый интернет-браузер Быстрее загружает сайты Экономит интернет—трафик Меняет оформление страницы ВК Блокирует всю рекламу на сайтах Загружает торренты как

    µTorrent

    клиент
    Объеденяет все твои чаты из соц. сетей в один Проигрывает твою музыку не заходя во ВКонтакте
    Скачать и многое другое... Подробности на сайте производителя
    Информация о фильме
    Название: Военная приемка. Ракетный комплекс Искандер-М
    Год выхода: 11.02.2018
    Жанр: Документальный
    Режиссер: Иван Чигвинцев
    В ролях: Алексей Егоров, Валерий Кашин

    О фильме:
    В этом выпуске «Военная приёмка» расскажет о российском оружии, которое страны НАТО считают не менее опасным, чем ядерное: это ракетный комплекс «Искандер-М». Благодаря уникальной аэробаллистической ракете, он способен пробивать любую систему ПРО любой страны Запада. Дело в том, что в полёте эта ракета выходит на гиперскоростной режим (скорость больше 6 Махов) и на предельные перегрузки в 35G! И что важно, такой полёт проходит по абсолютно непредсказуемой траектории, именно поэтому современными средствами обороны перехватить такую ракету невозможно. Чтобы доказать это, вместе с бригадой «Искандеров» «Военная приемка» отправится на учения и примет участие в подготовке комплексов к стрельбе. Зрители программы увидят эксклюзивные кадры боевых запусков ракет, посмотрят, как выглядят гонки на «Искандере» по замёрзшей степи, узнают, как выглядит ракетная гостиница на колёсах, и поймут, почему натовцы пытались лишить Россию этого уникального оружия.

    Страна: Россия
    Студия: ОАО «ТРК ВС РФ «ЗВЕЗДА»
    Продолжительность: 00:38:02
    Перевод: Не требуется

    Файл
    Кодек: h.264
    Качество: WEBRip 720p
    Видео: AVC MPEG-4, 1280x720 (16:9), ~2500 Kbps, 25 fps
    Звук: Русский, AAC, 2 ch, 192 Kbps

    Mediainfo

    General
    Unique ID                   : 18031072003872205220988258006245551644 (0xD90A87C877EC247F0CDD29DF0C3AE1C)
    Complete name               : D:FilmВоенная приемка. Ракетный комплекс Искандер-М.mkv
    Format                      : Matroska
    Format version              : Version 4 / Version 2
    File size                   : 734 MiB
    Duration                    : 38 min 2 s
    Overall bit rate mode       : Variable
    Overall bit rate            : 2 697 kb/s
    Encoded date                : UTC 2018-02-12 13:58:27
    Writing application         : mkvmerge v20.0.0 ("I Am The Sun") 64-bit
    Writing library             : libebml v1.3.5 + libmatroska v1.4.8
    Cover                       : Yes
    Attachments                 : cover.jpg

    Video
    ID                          : 2
    Format                      : AVC
    Format/Info                 : Advanced Video Codec
    Format profile              : High@L4
    Format settings             : CABAC / 2 Ref Frames
    Format settings, CABAC      : Yes
    Format settings, RefFrames  : 2 frames
    Format settings, GOP        : M=2, N=13
    Codec ID                    : V_MPEG4/ISO/AVC
    Duration                    : 38 min 2 s
    Bit rate mode               : Variable
    Bit rate                    : 2 502 kb/s
    Maximum bit rate            : 3 000 kb/s
    Width                       : 1 280 pixels
    Height                      : 720 pixels
    Display aspect ratio        : 16:9
    Frame rate mode             : Constant
    Frame rate                  : 25.000 FPS
    Color space                 : YUV
    Chroma subsampling          : 4:2:0
    Bit depth                   : 8 bits
    Scan type                   : Progressive
    Bits/(Pixel*Frame)          : 0.109
    Stream size                 : 681 MiB (93%)
    Language                    : Russian
    Default                     : Yes
    Forced                      : No

    Audio
    ID                          : 1
    Format                      : AAC
    Format/Info                 : Advanced Audio Codec
    Format profile              : LC
    Codec ID                    : A_AAC-2
    Duration                    : 38 min 2 s
    Bit rate                    : 192 kb/s
    Channel(s)                  : 2 channels
    Channel positions           : Front: L R
    Sampling rate               : 48.0 kHz
    Frame rate                  : 46.875 FPS (1024 SPF)
    Compression mode            : Lossy
    Stream size                 : 52.3 MiB (7%)
    Language                    : Russian
    Default                     : Yes
    Forced                      : No



    Еще похожие »

    Как скачать?
    1. Качаем UTorrent версии 2.0 и выше отсюда
    2. После установки, жмем на ссылку Скачать торрент.
    3. Открываем его через utorrent.
    4. Ждем пока подключатся участники.
    5. Качаем.


    Комментарии о Военная приемка. Ракетный комплекс Искандер-М [11.02] | WEBRip 720p
    Добавлять комментарии могут только зарегистрированные пользователи

    Зарегистрироваться или Войти


    Ближайшее в кино
    • Привидение дата выхода 26 апреля 2018Привидение
      Дата выхода: 26 апреля 2018
    • 1045590|Правда или действие|26 апреля 2018|200|300Правда или действие
      Дата выхода: 26 апреля 2018
    • 841470|Смешарики. Дежавю|26 апреля 2018|200|300Смешарики. Дежавю
      Дата выхода: 26 апреля 2018
    • 1046545|Танки|26 апреля 2018|200|300Танки
      Дата выхода: 26 апреля 2018
    • 1027311|Дыши во мгле|26 апреля 2018|200|300Дыши во мгле
      Дата выхода: 26 апреля 2018
    • 959260|Миссис Хайд|26 апреля 2018|200|300Миссис Хайд
      Дата выхода: 26 апреля 2018
    • 845128|Я заберу твои деньги|26 апреля 2018|200|300Я заберу твои деньги
      Дата выхода: 26 апреля 2018
    • 1112036|Лицо|26 апреля 2018|200|300Лицо
      Дата выхода: 26 апреля 2018
    • 1076322|Великолепная|26 апреля 2018|200|300Великолепная
      Дата выхода: 26 апреля 2018
    • 1110934|Золушка|28 апреля 2018|200|300Золушка
      Дата выхода: 28 апреля 2018
    • 1115701|МУЛЬТ в кино. Выпуск №74. Планета Май!|28 апреля 2018|200|300МУЛЬТ в кино. Выпуск №74. Планета Май!
      Дата выхода: 28 апреля 2018
    • 928533|Папа-мама гусь|1 мая 2018|200|300Папа-мама гусь
      Дата выхода: 1 мая 2018
    • 843649|Мстители: Война бесконечности|3 мая 2018|200|300Мстители: Война бесконечности
      Дата выхода: 3 мая 2018
    • 939785|Остров собак|3 мая 2018|200|300Остров собак
      Дата выхода: 3 мая 2018
    • 905031|Собибор|3 мая 2018|200|300Собибор
      Дата выхода: 3 мая 2018
    Вверх