• Игры для PS4
  • Игры для PS3
  • Игры для XBOX360
  • Игры для PC
  • Игры для PS2
  • Игры для PSP
  • Для телефонов
  • Музыка
  • Книги / Журналы
  • Обои
  • Опрос
    Откуда Вы о нас узнали?
      0
    • От знакомых2,1,false,300,full
    • Из социальных сетей2,2,false,300,full
    • Из поисковых систем2,3,false,300,full
    • Другое2,4,false,300,full
    Статистика
    Всего онлайн -
    Гостей -
    Пользователей -
    Короли трекера
    Благодарности () Закрыть
    Информация о фильме
    Название: День мертвецов: Злая кровь
    Оригинальное название: Day of the Dead: Bloodline
    Год выхода: 2018
    Жанр: Ужасы
    Страна: США
    Студия: Nu Boyana Film Studios
    Перевод: Дублированный | iTunes
    Продолжительность: 01:29:59
    Режиссер: Гектор Эрнандес
    В ролях: Софи Скелтон, Джонатон Шек, Джефф Гам, Маркус Ванко, Марк Смит, Лиллиэн Бланкеншип, Шари Уотсон, Рэйчел О"Мира, Люк Казинс, Лорина Камбурова и др.

    О фильме: Чудовищный вирус, превращающий людей в зомби, поставил под угрозу само существование человеческой расы. Группе военных удалось укрыться в катакомбах, где молодая и обаятельная Зои проводит опыты по поиску вакцины. Для нахождения нужной формулы не хватает лишь одного «элемента». На его поиски отправляется группа спецназевцев. Дерзкая вылазка в «мёртвую зону» оборачивается провалом и запускает обратный отсчет времени.

    [img]http://imdb.snick.ru/ratefor/02/tt3053228.png[/img][img]https://rating.kinopoisk.ru/779484.gif[/img]

    Файл
    Качество: WEB-DL 1080p
    Видео: MPEG-4 AVC, 1920x806, 4501 kbps, 24,000 fps
    Звук: Русский: AC3, 6 ch, 48 kHz, 384 kbps

    MI
    Общее
    Уникальный идентификатор                 : 185086240949598666823397764152398520563 (0x8B3E503945724CC3A6D63D1E0CD520F3)
    Полное имя                               : E:UttorentДень мервтецовДень мертвецов_ Злая кровь (1080p HD.mkv
    Формат                                   : Matroska
    Версия формата                           : Version 4 / Version 2
    Размер файла                             : 3,07 Гбайт
    Продолжительность                        : 1 ч. 29 м.
    Общий поток                              : 4887 Кбит/сек
    Дата кодирования                         : UTC 2018-02-12 15:46:06
    Программа кодирования                    : mkvmerge v9.5.0 ("Quiet Fire") 64bit
    Библиотека кодирования                   : libebml v1.3.4 + libmatroska v1.4.5

    Видео
    Идентификатор                            : 1
    Формат                                   : AVC
    Формат/Информация                        : Advanced Video Codec
    Профиль формата                          : High@L4
    Настройки формата                        : CABAC / 5 Ref Frames
    Параметр CABAC формата                   : Да
    Параметр RefFrames формата               : 5 кадров
    Идентификатор кодека                     : V_MPEG4/ISO/AVC
    Продолжительность                        : 1 ч. 29 м.
    Битрейт                                  : 4501 Кбит/сек
    Ширина                                   : 1920 пикселей
    Высота                                   : 806 пикселей
    Соотношение сторон                       : 2,40:1
    Режим частоты кадров                     : Постоянный
    Частота кадров                           : 24,000 кадра/сек
    Цветовое пространство                    : YUV
    Субдискретизация насыщенности            : 4:2:0
    Битовая глубина                          : 8 бит
    Тип развёртки                            : Прогрессивная
    Бит/(Пиксели*Кадры)                      : 0.121
    Размер потока                            : 2,83 Гбайт (92%)
    Язык                                     : English
    Default                                  : Да
    Forced                                   : Нет
    Цветовой диапазон                        : Limited
    Основные цвета                           : BT.709
    Характеристики трансфера                 : BT.709
    Коэффициенты матрицы                     : BT.709

    Аудио
    Идентификатор                            : 2
    Формат                                   : AC-3
    Формат/Информация                        : Audio Coding 3
    Параметр Endianness формата              : Big
    Идентификатор кодека                     : A_AC3
    Продолжительность                        : 1 ч. 29 м.
    Вид битрейта                             : Постоянный
    Битрейт                                  : 384 Кбит/сек
    Каналы                                   : 6 каналов
    Расположение каналов                     : Front: L C R, Side: L R, LFE
    Частота                                  : 48,0 КГц
    Частота кадров                           : 31,250 кадров/сек (1536 SPF)
    Битовая глубина                          : 16 бит
    Метод сжатия                             : С потерями
    Размер потока                            : 247 Мбайт (8%)
    Язык                                     : Russian
    Default                                  : Да
    Forced                                   : Нет

    Меню
    00:00:00.000                             : en:Глава 1
    00:11:56.083                             : en:Глава 2
    00:18:41.999                             : en:Глава 3
    00:25:40.749                             : en:Глава 4
    00:32:36.540                             : en:Глава 5
    00:38:33.206                             : en:Глава 6
    00:44:01.789                             : en:Глава 7
    00:48:57.997                             : en:Глава 8
    00:55:13.413                             : en:Глава 9
    01:02:12.413                             : en:Глава 10
    01:08:40.996                             : en:Глава 11
    01:13:48.704                             : en:Глава 12
    01:19:30.370                             : en:Глава 13Свернуть


    Скриншоты
    [screen]http://i99.fastpic.ru/big/2018/0212/e8/d0a43a28a31e41eed07c0f0679d076e8.png[/screen][screen]http://i99.fastpic.ru/big/2018/0212/12/d3e0cc3552c370370da7d687fbebbc12.png[/screen][screen]http://i101.fastpic.ru/big/2018/0212/f0/f9ad762128fd3415eab11e2c681001f0.png[/screen][screen]http://i99.fastpic.ru/big/2018/0212/33/ae93b34dac1626207c2e72bb23fcf933.png[/screen][screen]http://i101.fastpic.ru/big/2018/0212/16/c6daa982f46ea9d52705b08a89e4c616.png[/screen]Свернуть
    Инструкция по скачиванию
     1  Качаем uTorrent версии 2.0 и выше
     2  После установки, жмем выше под постером на ссылку Скачать [MediaGet] или Скачать .torrent
     3  Открываем скачанный файл через соответствующий клиент: MediaGet или uTorrent
     4  Ждем пока подключатся участники
     5  Качаем
    Комментарии о  День мертвецов: Злая кровь / Day of the Dead: Bloodline | WEB-DL 1080p 
    Ближайшее в кино
    Вверх