• Игры для PS4
  • Игры для PS3
  • Игры для XBOX360
  • Игры для PC
  • Игры для PS2
  • Игры для PSP
  • Для телефонов
  • Музыка
  • Книги / Журналы
  • Обои
  • Опрос
    Откуда Вы о нас узнали?
      0
    • От знакомых2,1,false,300,full
    • Из социальных сетей2,2,false,300,full
    • Из поисковых систем2,3,false,300,full
    • Другое2,4,false,300,full
    Статистика
    Всего онлайн -
    Гостей -
    Пользователей -
    Короли трекера
    Благодарности () Закрыть
    Информация о фильме
    Название: Сламбер: Лабиринты сна
    Оригинальное название: Slumber
    Год выхода: 2017
    Жанр:  ужасы
    Режиссер: Джонатан Хопкинс
    В ролях: Мэгги Кью, Хонор Книфси, Сильвестр МакКой, Уилл Кемп, Уильям Хоуп, Сэм Тротон, Марк Престон, Кристен Буш, Лукас Бонд, Линди Пьери

    О фильме: Доктор Элис изучает ночные кошмары и поведение людей во сне, сама при этом страдая параноидальными видениями.Она пытается помочь молодой семье избавиться от невероятного ужаса, с которым они сталкиваются каждую ночь. Но в ходе своей работы, Элис приходится отказаться от стандартных методов лечения и осознать, что по ночам в души этой семьи проникает нечто потустороннее.Чтобы спасти людей от этого зла, ей придётся встретиться лицом к лицу со своими собственными страхами, которые преследуют её всю жизнь.  

    [img]http://www.kinopoisk.ru/rating/960653.gif[/img]

    Страна: Великобритания, США
    Продолжительность:  01:24:16
    Перевод: Дублированный | [iTunes]

    Файл
    Формат: MKV
    Кодек: MPEG-4 AVC
    Качество: WEB-DL 720p
    Видео:  4 083 Кбит/с, 1280x534
    Аудио#1: Русский (AC3, 6 ch, 384 Кбит/с)
    Аудио#2: Английский (AC3, 6 ch, 384 Кбит/с)
    Субтитры: Английские

    MI
    General
    Unique ID                      : 239401759144149111018041859710658173696 (0xB41B1A06E119A7F5909FCD4BA1965B00)
    Complete name                  : D:фильмыSlumber.2O17.D.WEB-DL 72Op.mkv
    Format                         : Matroska
    Format version                 : Version 2
    File size                      : 2.86 GiB
    Duration                       : 1 h 24 min
    Overall bit rate               : 4 853 kb/s
    Encoded date                   : UTC 2018-02-12 14:18:50
    Writing application            : mkvmerge v8.3.0 ("Over the Horizon") 64bit
    Writing library                : libebml v1.3.1 + libmatroska v1.4.2

    Video
    ID                             : 1
    Format                         : AVC
    Format/Info                    : Advanced Video Codec
    Format profile                 : High@L4.1
    Format settings, CABAC         : Yes
    Format settings, ReFrames      : 4 frames
    Codec ID                       : V_MPEG4/ISO/AVC
    Duration                       : 1 h 24 min
    Bit rate                       : 4 083 kb/s
    Width                          : 1 280 pixels
    Height                         : 534 pixels
    Display aspect ratio           : 2.40:1
    Frame rate mode                : Constant
    Frame rate                     : 23.976 (24000/1001) FPS
    Color space                    : YUV
    Chroma subsampling             : 4:2:0
    Bit depth                      : 8 bits
    Scan type                      : Progressive
    Bits/(Pixel*Frame)             : 0.249
    Stream size                    : 2.40 GiB (84%)
    Language                       : English
    Default                        : Yes
    Forced                         : No

    Audio #1
    ID                             : 2
    Format                         : AC-3
    Format/Info                    : Audio Coding 3
    Mode extension                 : CM (complete main)
    Format settings, Endianness    : Big
    Codec ID                       : A_AC3
    Duration                       : 1 h 24 min
    Bit rate mode                  : Constant
    Bit rate                       : 384 kb/s
    Channel(s)                     : 6 channels
    Channel positions              : Front: L C R, Side: L R, LFE
    Sampling rate                  : 48.0 kHz
    Frame rate                     : 31.250 FPS (1536 spf)
    Bit depth                      : 16 bits
    Compression mode               : Lossy
    Stream size                    : 231 MiB (8%)
    Language                       : Russian
    Default                        : Yes
    Forced                         : No

    Audio #2
    ID                             : 3
    Format                         : AC-3
    Format/Info                    : Audio Coding 3
    Mode extension                 : CM (complete main)
    Format settings, Endianness    : Big
    Codec ID                       : A_AC3
    Duration                       : 1 h 24 min
    Bit rate mode                  : Constant
    Bit rate                       : 384 kb/s
    Channel(s)                     : 6 channels
    Channel positions              : Front: L C R, Side: L R, LFE
    Sampling rate                  : 48.0 kHz
    Frame rate                     : 31.250 FPS (1536 spf)
    Bit depth                      : 16 bits
    Compression mode               : Lossy
    Stream size                    : 231 MiB (8%)
    Language                       : English
    Default                        : No
    Forced                         : No

    Text
    ID                             : 4
    Format                         : UTF-8
    Codec ID                       : S_TEXT/UTF8
    Codec ID/Info                  : UTF-8 Plain Text
    Duration                       : 1 h 20 min
    Bit rate                       : 42 b/s
    Count of elements              : 803
    Stream size                    : 25.4 KiB (0%)
    Language                       : English
    Default                        : Yes
    Forced                         : No

    Menu
    00:00:00.000                   : en:1
    00:05:26.000                   : en:2
    00:10:54.000                   : en:3
    00:16:57.000                   : en:4
    00:21:35.000                   : en:5
    00:27:56.000                   : en:6
    00:33:05.000                   : en:7
    00:38:26.000                   : en:8
    00:44:52.000                   : en:9
    00:48:56.000                   : en:10
    00:53:23.000                   : en:11
    00:59:02.000                   : en:12
    01:04:54.000                   : en:13
    01:08:32.000                   : en:14
    01:17:25.000                   : en:15
    01:21:44.000                   : en:16

    Свернуть


    Скриншоты
    [screen]http://i103.fastpic.ru/big/2018/0212/a9/628f06feeda8dff200dd8bdd1c2df9a9.png[/screen][screen]http://i103.fastpic.ru/big/2018/0212/52/f6ec347cddb2c525a0e9658d01b3da52.png[/screen][screen]http://i103.fastpic.ru/big/2018/0212/e0/36ef7eefdcd9d8b0677b53e49b5fc7e0.png[/screen][screen]http://i103.fastpic.ru/big/2018/0212/71/43d2060e0f541f1c0f1c953a0bcf4d71.png[/screen][screen]http://i103.fastpic.ru/big/2018/0212/58/bb7b20567b91f8134f889c19af4ac958.png[/screen][screen]http://i103.fastpic.ru/big/2018/0212/6a/4e1a0b96c62d12f1b4e32914ad06516a.png[/screen]Свернуть
    Похожие раздачи Искать похожие
    Инструкция по скачиванию
     1  Качаем uTorrent версии 2.0 и выше
     2  После установки, жмем выше под постером на ссылку Скачать [MediaGet] или Скачать .torrent
     3  Открываем скачанный файл через соответствующий клиент: MediaGet или uTorrent
     4  Ждем пока подключатся участники
     5  Качаем
    Комментарии о  Сламбер: Лабиринты сна / Slumber | WEB-DL 720p 
    Ближайшее в кино
    Вверх