• Игры для PS3
  • Игры для XBOX360
  • Игры для PC
  • Игры для PS2
  • Игры для PSP
  • Для телефонов
  • Музыка
  • Книги/Журналы
  • Обои
  •  
    Опрос
    Откуда Вы о нас узнали?
      0
    • От знакомых2,1,false,300,full
    • Из социальных сетей2,2,false,300,full
    • Из поисковых систем2,3,false,300,full
    • Другое2,4,false,300,full
    Статистика
    Загрузка...
    Американский дьявол / American Satan | HDRip 720p
    Статус  Проверено
    В закладки
    Модератор: Max

    Американский дьявол / American Satan | HDRip 720p [Фильмы 2017] скачать торрентом/torrent бесплатно

    Год выхода
    Категории
    Язык
    Закачал
    Аноним | 13 февраля 2018 в 11ч 15м 53с
    Раздел
    Отзывов
    0
    Раздают: 75 Качают: 26 Скачали: 252 Размер: 3.34 GB
    Инфо о раздаче | Благодарности |
    0/5
    0
    Поддержи нас — расскажи друзьям!
    Orbitum
    Новый интернет-браузер Быстрее загружает сайты Экономит интернет—трафик Меняет оформление страницы ВК Блокирует всю рекламу на сайтах Загружает торренты как

    µTorrent

    клиент
    Объеденяет все твои чаты из соц. сетей в один Проигрывает твою музыку не заходя во ВКонтакте
    Скачать и многое другое... Подробности на сайте производителя
    Информация о фильме
    Название: Американский дьявол
    Оригинальное название: American Satan
    Год выпуска: 2017
    Жанр:  Триллер, драма, музыка
    Режиссер: Эш Эвилдсен
    В ролях: Дэнис Ричардс, Малкольм МакДауэлл, Бу Бу Стюарт, Патрик Малдун, Марк Бун Джуниор, Тори Блэк, Себастьян Бах, Билл Дьюк, Дрэйк Белл, Билл Голдберг

    О фильме:
    Молодые музыканты бросают колледж и отправляются в Голливуд, на встречу мечте. Как бы они ни были талантливы, но средств на жизнь не хватает: группе приходится жить в фургоне. Загадочный незнакомец видит в них огромный потенциал и, манипулируя их чувствами в момент слабости, заставляет заключить сделку с дьяволом. Теперь их музыка в буквальном смысле может изменить мир, но смогут ли музыканты вернуть контроль над собственной жизнью, пока не стало слишком поздно?


    Страна: США
    Студия: Intrinsic Value Films
    Продолжительность: 01:52:41
    Перевод: Любительский многоголосый [GreenРай Studio]

    Файл
    Кодек: x264
    Качество: HDRip 720p
    Видео: 4000 Кбит/с, 1280x536, 23.976 fps
    Звук: Русский (MP3, 2 ch, 320 Кбит/с)



    MediaInfo
    eneral
    Unique ID                   : 221251530704409565327600774053418171969 (0xA6737EACB03083D2AF3377BB6D1EFE41)
    Complete name               : E:workAmerican.Satan.2017.P.BDRip.720p.mkv
    Format                      : Matroska
    Format version              : Version 4 / Version 2
    File size                   : 3.34 GiB
    Duration                    : 1 h 52 min
    Overall bit rate mode       : Constant
    Overall bit rate            : 4 240 kb/s
    Encoded date                : UTC 2018-02-12 13:54:39
    Writing application         : mkvmerge v8.3.0 ("Over the Horizon") 64bit
    Writing library             : libebml v1.3.1 + libmatroska v1.4.2

    Video
    ID                          : 1
    Format                      : AVC
    Format/Info                 : Advanced Video Codec
    Format profile              : Main@L3.1
    Format settings             : CABAC / 3 Ref Frames
    Format settings, CABAC      : Yes
    Format settings, ReFrames   : 3 frames
    Format settings, GOP        : M=4, N=15
    Codec ID                    : V_MPEG4/ISO/AVC
    Duration                    : 1 h 52 min
    Bit rate mode               : Constant
    Bit rate                    : 4 000 kb/s
    Width                       : 1 280 pixels
    Height                      : 536 pixels
    Display aspect ratio        : 2.40:1
    Frame rate mode             : Constant
    Frame rate                  : 23.976 (24000/1001) FPS
    Standard                    : NTSC
    Color space                 : YUV
    Chroma subsampling          : 4:2:0
    Bit depth                   : 8 bits
    Scan type                   : Progressive
    Bits/(Pixel*Frame)          : 0.243
    Stream size                 : 3.08 GiB (92%)
    Language                    : English
    Default                     : Yes
    Forced                      : No
    Color range                 : Limited

    Audio
    ID                          : 2
    Format                      : MPEG Audio
    Format version              : Version 1
    Format profile              : Layer 3
    Format settings             : Joint stereo
    Codec ID                    : A_MPEG/L3
    Codec ID/Hint               : MP3
    Duration                    : 1 h 52 min
    Bit rate mode               : Constant
    Bit rate                    : 320 kb/s
    Channel(s)                  : 2 channels
    Sampling rate               : 48.0 kHz
    Frame rate                  : 41.667 FPS (1152 SPF)
    Compression mode            : Lossy
    Stream size                 : 258 MiB (8%)
    Default                     : Yes
    Forced                      : No



    Внимание,имеется  видео и аудио реклама от спонсора показа

    Над релизом работали:
    Над релизом работали:
    Состав дикторов Руслан Чериев, Анастасия Гайдаржи, Олег Винник
    Руководитель проекта и координатор: Евгений Овчаренко
    Организатор и координатор: Никита Марков
    Пиар менеджер студии: Гриша Чернозатонский
    Техническая поддержка: Александр Методий
    Еще похожие »

    Как скачать?
    1. Качаем UTorrent версии 2.0 и выше отсюда
    2. После установки, жмем на ссылку Скачать торрент.
    3. Открываем его через utorrent.
    4. Ждем пока подключатся участники.
    5. Качаем.


    Комментарии о Американский дьявол / American Satan | HDRip 720p
    Добавлять комментарии могут только зарегистрированные пользователи

    Зарегистрироваться или Войти


    Ближайшее в кино
    • Секретное досье дата выхода 22 февраля 2018Секретное досье
      Дата выхода: 22 февраля 2018
    • О чём говорят мужчины. Продолжение дата выхода 22 февраля 2018О чём говорят мужчины. Продолжение
      Дата выхода: 22 февраля 2018
    • Все деньги мира дата выхода 22 февраля 2018Все деньги мира
      Дата выхода: 22 февраля 2018
    • Рубеж дата выхода 22 февраля 2018Рубеж
      Дата выхода: 22 февраля 2018
    • Дикий дата выхода 22 февраля 2018Дикий
      Дата выхода: 22 февраля 2018
    • Кикбоксер возвращается дата выхода 22 февраля 2018Кикбоксер возвращается
      Дата выхода: 22 февраля 2018
    • На пределе дата выхода 22 февраля 2018На пределе
      Дата выхода: 22 февраля 2018
    • Ночные игры дата выхода 22 февраля 2018Ночные игры
      Дата выхода: 22 февраля 2018
    • Человек, который спас мир дата выхода 22 февраля 2018Человек, который спас мир
      Дата выхода: 22 февраля 2018
    • Гномы в доме дата выхода 22 февраля 2018Гномы в доме
      Дата выхода: 22 февраля 2018
    • Кошка на раскалённой крыше дата выхода 22 февраля 2018Кошка на раскалённой крыше
      Дата выхода: 22 февраля 2018
    • Вся наша надежда дата выхода 22 февраля 2018Вся наша надежда
      Дата выхода: 22 февраля 2018
    • В Питере – петь. Сергей Шнуров дата выхода 22 февраля 2018В Питере – петь. Сергей Шнуров
      Дата выхода: 22 февраля 2018
    • Богема дата выхода 24 февраля 2018Богема
      Дата выхода: 24 февраля 2018
    • Чёрная Пантера дата выхода 26 февраля 2018Чёрная Пантера
      Дата выхода: 26 февраля 2018
    Вверх