• Игры для PS3
  • Игры для XBOX360
  • Игры для PC
  • Игры для PS2
  • Игры для PSP
  • Для телефонов
  • Музыка
  • Книги/Журналы
  • Обои
  •  
    Опрос
    Удобен ли сайт в использовании?
      0
    • Очень удобен, все понятно1,1,false,300,full
    • Удобен1,2,false,300,full
    • Средне1,3,false,300,full
    • Неудобен, трудно ориентироваться1,4,false,300,full
    • Совсем неудобен1,5,false,300,full
    Статистика
    Загрузка...
    Подставной город / Fabricated City | HDRip 720p
    Статус  Проверено
    В закладки
    Модератор: Max

    Подставной город / Fabricated City | HDRip 720p [Фильмы 2017] скачать торрентом/torrent бесплатно

    Год выхода
    Категории
    Язык
    Закачал
    Max | 13 февраля в 11ч 19м 50с
    Раздел
    Отзывов
    0
    Раздают: 30 Качают: 4 Скачали: 36 Размер: 4.02 GB
    Инфо о раздаче | Благодарности |
    0/5
    0
    0 5 0
    Поддержи нас — расскажи друзьям!
    Orbitum
    Новый интернет-браузер Быстрее загружает сайты Экономит интернет—трафик Меняет оформление страницы ВК Блокирует всю рекламу на сайтах Загружает торренты как

    µTorrent

    клиент
    Объеденяет все твои чаты из соц. сетей в один Проигрывает твою музыку не заходя во ВКонтакте
    Скачать и многое другое... Подробности на сайте производителя
    Информация о фильме
    Название: Подставной город
    Оригинальное название: Fabricated City
    Год выпуска: 2017
    Жанр:  Боевик, криминал
    Режиссер: Кван Хён Пак
    В ролях: Чан Ук Чжи, Ын Гён Сим, Чжон Се О, Чжэ Хон Ан, Сан Хо Ким (I), Ки Чхон Ким, Мин Гё Ким, Ха Ни Ли, Хо Чжун Ким, Сун Вон Ли, Сыль Ги Ким, И Ан Со, Тхэ Вон Квон, Чжи Хун Ким (IV), Гви Хва Чхве

    О фильме:
    В реальном мире Квон-ю — безработный неудачник, но в компьютерных играх — живая легенда и настоящий полевой командир. Однажды в кафе парень находит потерянный мобильник, хозяйка которого просит его вернуть трубу за вознаграждение, что он и делает. А на следующий день Квон-ю забирают в полицию. Хозяйка телефона изнасилована и убита, а наш виртуальный герой — идеальный подозреваемый, чтобы присесть на пожизненный. Самое время вспомнить свои командирские навыки, собрать в Сети преданных сторонников и показать этому миру — кто герой, а кто лузер.


    Страна: Корея Южная
    Студия: CJ Entertainment
    Продолжительность: 02:08:37
    Перевод: Любительский многоголосый [GreenРай Studio]

    Файл
    Кодек: x264
    Качество: HDRip 720p
    Видео: 4000 Кбит/с, 1280x536, 24.000 fps
    Звук: Русский (AC3, 2 ch, 640 Кбит/с)



    MediaInfo
    General
    Unique ID                   : 191308330640880187207049549616859918794 (0x8FECA4EE2BC46D3F849EA1F7186D31CA)
    Complete name               : E:workFabricated.City.2017.P.BDRip.720p.mkv
    Format                      : Matroska
    Format version              : Version 4 / Version 2
    File size                   : 4.02 GiB
    Duration                    : 2 h 7 min
    Overall bit rate mode       : Constant
    Overall bit rate            : 4 522 kb/s
    Encoded date                : UTC 2018-02-12 18:39:18
    Writing application         : mkvmerge v8.3.0 ("Over the Horizon") 64bit
    Writing library             : libebml v1.3.1 + libmatroska v1.4.2

    Video
    ID                          : 1
    Format                      : AVC
    Format/Info                 : Advanced Video Codec
    Format profile              : Main@L3.1
    Format settings             : CABAC / 3 Ref Frames
    Format settings, CABAC      : Yes
    Format settings, ReFrames   : 3 frames
    Format settings, GOP        : M=4, N=15
    Codec ID                    : V_MPEG4/ISO/AVC
    Duration                    : 2 h 7 min
    Bit rate mode               : Constant
    Bit rate                    : 4 000 kb/s
    Width                       : 1 280 pixels
    Height                      : 536 pixels
    Display aspect ratio        : 2.40:1
    Frame rate mode             : Constant
    Frame rate                  : 24.000 FPS
    Standard                    : NTSC
    Color space                 : YUV
    Chroma subsampling          : 4:2:0
    Bit depth                   : 8 bits
    Scan type                   : Progressive
    Bits/(Pixel*Frame)          : 0.243
    Stream size                 : 3.45 GiB (86%)
    Language                    : English
    Default                     : Yes
    Forced                      : No
    Color range                 : Limited

    Audio
    ID                          : 2
    Format                      : AC-3
    Format/Info                 : Audio Coding 3
    Codec ID                    : A_AC3
    Duration                    : 2 h 7 min
    Bit rate mode               : Constant
    Bit rate                    : 640 kb/s
    Channel(s)                  : 2 channels
    Channel positions           : Front: L R
    Sampling rate               : 48.0 kHz
    Frame rate                  : 31.250 FPS (1536 SPF)
    Bit depth                   : 16 bits
    Compression mode            : Lossy
    Stream size                 : 583 MiB (14%)
    Service kind                : Complete Main
    Default                     : Yes
    Forced                      : No



    Внимание,имеется  видео и аудио реклама от спонсора показа

    Над релизом работали:
    Состав дикторовАнастасия Гайдаржи, Руслан Чериев, Олег Винник
    Руководитель проекта и координатор: Евгений Овчаренко
    Организатор и координатор: Никита Марков
    Пиар менеджер студии: Гриша Чернозатонский
    Техническая поддержка: Александр Методий
    Еще похожие »

    Как скачать?
    1. Качаем UTorrent версии 2.0 и выше отсюда
    2. После установки, жмем на ссылку Скачать торрент.
    3. Открываем его через utorrent.
    4. Ждем пока подключатся участники.
    5. Качаем.


    Комментарии о Подставной город / Fabricated City | HDRip 720p
    Добавлять комментарии могут только зарегистрированные пользователи

    Зарегистрироваться или Войти


    Ближайшее в кино
    • Привидение дата выхода 26 апреля 2018Привидение
      Дата выхода: 26 апреля 2018
    • 1045590|Правда или действие|26 апреля 2018|200|300Правда или действие
      Дата выхода: 26 апреля 2018
    • 841470|Смешарики. Дежавю|26 апреля 2018|200|300Смешарики. Дежавю
      Дата выхода: 26 апреля 2018
    • 1046545|Танки|26 апреля 2018|200|300Танки
      Дата выхода: 26 апреля 2018
    • 1027311|Дыши во мгле|26 апреля 2018|200|300Дыши во мгле
      Дата выхода: 26 апреля 2018
    • 959260|Миссис Хайд|26 апреля 2018|200|300Миссис Хайд
      Дата выхода: 26 апреля 2018
    • 845128|Я заберу твои деньги|26 апреля 2018|200|300Я заберу твои деньги
      Дата выхода: 26 апреля 2018
    • 1112036|Лицо|26 апреля 2018|200|300Лицо
      Дата выхода: 26 апреля 2018
    • 1076322|Великолепная|26 апреля 2018|200|300Великолепная
      Дата выхода: 26 апреля 2018
    • 1110934|Золушка|28 апреля 2018|200|300Золушка
      Дата выхода: 28 апреля 2018
    • 1115701|МУЛЬТ в кино. Выпуск №74. Планета Май!|28 апреля 2018|200|300МУЛЬТ в кино. Выпуск №74. Планета Май!
      Дата выхода: 28 апреля 2018
    • 928533|Папа-мама гусь|1 мая 2018|200|300Папа-мама гусь
      Дата выхода: 1 мая 2018
    • 843649|Мстители: Война бесконечности|3 мая 2018|200|300Мстители: Война бесконечности
      Дата выхода: 3 мая 2018
    • 939785|Остров собак|3 мая 2018|200|300Остров собак
      Дата выхода: 3 мая 2018
    • 905031|Собибор|3 мая 2018|200|300Собибор
      Дата выхода: 3 мая 2018
    Вверх