• Игры для PS4
  • Игры для PS3
  • Игры для XBOX360
  • Игры для PC
  • Игры для PS2
  • Игры для PSP
  • Для телефонов
  • Музыка
  • Книги / Журналы
  • Обои
  • Опрос
    Удобен ли сайт в использовании?
      0
    • Очень удобен, все понятно1,1,false,300,full
    • Удобен1,2,false,300,full
    • Средне1,3,false,300,full
    • Неудобен, трудно ориентироваться1,4,false,300,full
    • Совсем неудобен1,5,false,300,full
    Статистика
    Всего онлайн -
    Гостей -
    Пользователей -
    Короли трекера
    Благодарности () Закрыть
    Информация о фильме
    Название: Новый Человек-паук
    Оригинальное название: The Amazing Spider-Man
    Год выхода: 2012
    Жанр: Фантастика, боевик, приключения, комикс, супергерой
    Режиссер: Марк Уэбб
    В ролях: Эндрю Гарфилд, Эмма Стоун, Рис Иванс, Дэнис Лири, Мартин Шин, Салли Филд, Эмбет Дэвидц, Кэмпбелл Скотт, Ирфан Кхан, Крис Зилка, Макс Чарльз, С. Томас Хауэлл, Джейк Кейффер, Кэри Коулмэн, Майкл Барра, Лейф Гантвурт, Энди Пессоа, Ханна Маркс, Келси Чоу, Кевин МакКоркл, Энди Глэдбах, Ринг Хендрикс-Теллефсен, Барбара Ив Харрис, Стэн Ли, Даниэль Бургио

    О фильме:
    Какие тайны хранят эти старые отцовские документы?.. Питер решает всё выяснить. Проникнув в секретную лабораторию "Оскорп", где работал его отец, помеченную такими же символами, какие были в найденных документах, он увидел, что в этой лаборатории исследуются пауки. Выходя, он случайно вынес на себе одного и вскоре тот укусил его. По дороге домой он обнаружил, что теперь обладает необычными способностями - невероятной силой, ловкостью. На следующий день Питер решает отправиться домой к бывшему другу и коллеге отца, Курту Коннорсу. Он тоже не знает причину его исчезновения и говорит, что теперь без его отца исследования зашли в тупик. Питер, попросив бумагу и карандаш, написал завершающую формулу найденную в записях отца, не подозревая, что этим он положил начало и катастрофе и своим подвигам...



    Страна: США
    Студия: Columbia Pictures, Laura Ziskin Productions, Marvel Enterprises, Marvel Studios Inc.
    Продолжительность: 02:16:17
    Перевод: Дублированный, авторский

    Файл
    Кодек: H.265
    Качество: UHD BDRemux 2160p
    Видео: MPEG-H HEVC HDR, 42.5 Mбит/с, 3840x2160, 23.976 кадр/с
    Звук:
    1. Русский (AC3, 6 ch, 640 Кбит/с) / Дублированный (Blu-ray EUR)
    2. Русский (DTS-HD MA, 6 ch, 2330 Кбит/с) / Авторский (А. Гаврилов)
    3. Русский (DTS-HD MA, 6 ch, 2330 Кбит/с) / Авторский (Ю. Сербин)
    4. Украинский (AC3, 6 ch, 640 Кбит/с) / Дублированный (Blu-ray CEE)
    5. Английский (TrueHD+Atmos, 8 ch, 5191 Кбит/с)
    6. Английский (AC3, 6 ch, 640 Кбит/с)
    Субтитры: Русские (форсированные, полные), английские

    Семпл

    MI
    General
    Unique ID                                : 314817127308252398280750996667483703684 (0xECD792C07080B7237E02C08E06FE4984)
    Complete name                            : D:uTorrentNovyi.chelovek.pauk.2012.2160p.HEVC.UHD.HDR.MediaClub.mkv
    Format                                   : Matroska
    Format version                           : Version 4 / Version 2
    File size                                : 51.7 GiB
    Duration                                 : 2 h 16 min
    Overall bit rate mode                    : Variable
    Overall bit rate                         : 54.3 Mb/s
    Encoded date                             : UTC 2018-02-11 15:44:41
    Writing application                      : mkvmerge v19.0.0 ("Brave Captain") 64-bit
    Writing library                          : libebml v1.3.5 + libmatroska v1.4.8
    Cover                                    : Yes
    Attachments                              : cover.jpg

    Video
    ID                                       : 1
    Format                                   : HEVC
    Format/Info                              : High Efficiency Video Coding
    Format profile                           : Main 10@L5.1@High
    Codec ID                                 : V_MPEGH/ISO/HEVC
    Duration                                 : 2 h 16 min
    Bit rate                                 : 42.5 Mb/s
    Width                                    : 3 840 pixels
    Height                                   : 2 160 pixels
    Display aspect ratio                     : 16:9
    Frame rate mode                          : Constant
    Frame rate                               : 23.976 (24000/1001) FPS
    Color space                              : YUV
    Chroma subsampling                       : 4:2:0 (Type 2)
    Bit depth                                : 10 bits
    Bits/(Pixel*Frame)                       : 0.214
    Stream size                              : 40.4 GiB (78%)
    Title                                    : BDRemux, 20160p, HEVC, UDH, HDR by Silverok
    Default                                  : Yes
    Forced                                   : No
    Color range                              : Limited
    Color primaries                          : BT.2020
    Transfer characteristics                 : PQ
    Matrix coefficients                      : BT.2020 non-constant
    Mastering display color primaries        : Display P3
    Mastering display luminance              : min: 0.0050 cd/m2, max: 4000 cd/m2
    Maximum Content Light Level              : 4809 cd/m2
    Maximum Frame-Average Light Level        : 1138 cd/m2

    Audio #1
    ID                                       : 2
    Format                                   : AC-3
    Format/Info                              : Audio Coding 3
    Codec ID                                 : A_AC3
    Duration                                 : 2 h 16 min
    Bit rate mode                            : Constant
    Bit rate                                 : 640 kb/s
    Channel(s)                               : 6 channels
    Channel positions                        : Front: L C R, Side: L R, LFE
    Sampling rate                            : 48.0 kHz
    Frame rate                               : 31.250 FPS (1536 SPF)
    Bit depth                                : 16 bits
    Compression mode                         : Lossy
    Stream size                              : 624 MiB (1%)
    Title                                    : дублированный (Blu-ray EUR)
    Language                                 : Russian
    Service kind                             : Complete Main
    Default                                  : Yes
    Forced                                   : No

    Audio #2
    ID                                       : 3
    Format                                   : DTS
    Format/Info                              : Digital Theater Systems
    Format profile                           : MA / Core
    Codec ID                                 : A_DTS
    Duration                                 : 2 h 16 min
    Bit rate mode                            : Variable / Constant
    Bit rate                                 : 2 330 kb/s / 1 509 kb/s
    Channel(s)                               : 6 channels
    Channel positions                        : Front: L C R, Side: L R, LFE
    Sampling rate                            : 48.0 kHz
    Frame rate                               : 93.750 FPS (512 SPF)
    Bit depth                                : 16 bits
    Compression mode                         : Lossless / Lossy
    Stream size                              : 2.22 GiB (4%)
    Title                                    : Авторский (А. Гаврилов)
    Language                                 : Russian
    Default                                  : No
    Forced                                   : No

    Audio #3
    ID                                       : 4
    Format                                   : DTS
    Format/Info                              : Digital Theater Systems
    Format profile                           : MA / Core
    Codec ID                                 : A_DTS
    Duration                                 : 2 h 16 min
    Bit rate mode                            : Variable / Constant
    Bit rate                                 : 2 329 kb/s / 1 509 kb/s
    Channel(s)                               : 6 channels
    Channel positions                        : Front: L C R, Side: L R, LFE
    Sampling rate                            : 48.0 kHz
    Frame rate                               : 93.750 FPS (512 SPF)
    Bit depth                                : 16 bits
    Compression mode                         : Lossless / Lossy
    Stream size                              : 2.22 GiB (4%)
    Title                                    : Авторский (Ю. Сербин)
    Language                                 : Russian
    Default                                  : No
    Forced                                   : No

    Audio #4
    ID                                       : 5
    Format                                   : AC-3
    Format/Info                              : Audio Coding 3
    Codec ID                                 : A_AC3
    Duration                                 : 2 h 16 min
    Bit rate mode                            : Constant
    Bit rate                                 : 640 kb/s
    Channel(s)                               : 6 channels
    Channel positions                        : Front: L C R, Side: L R, LFE
    Sampling rate                            : 48.0 kHz
    Frame rate                               : 31.250 FPS (1536 SPF)
    Bit depth                                : 16 bits
    Compression mode                         : Lossy
    Stream size                              : 624 MiB (1%)
    Title                                    : дублированный (Blu-ray BD CEE)
    Language                                 : Ukrainian
    Service kind                             : Complete Main
    Default                                  : No
    Forced                                   : No

    Audio #5
    ID                                       : 6
    Format                                   : TrueHD
    Format profile                           : TrueHD+Atmos / TrueHD
    Codec ID                                 : A_TRUEHD
    Duration                                 : 2 h 16 min
    Bit rate mode                            : Variable
    Bit rate                                 : 5 191 kb/s
    Maximum bit rate                         : 8 358 kb/s
    Channel(s)                               : Object Based / 8 channels
    Channel positions                        : Object Based / Front: L C R, Side: L R, Back: L R, LFE
    Sampling rate                            :  / 48.0 kHz
    Frame rate                               : 1 200.000 FPS (40 SPF)
    Compression mode                         : Lossless
    Stream size                              : 4.94 GiB (10%)
    Language                                 : English
    Default                                  : No
    Forced                                   : No

    Audio #6
    ID                                       : 7
    Format                                   : AC-3
    Format/Info                              : Audio Coding 3
    Codec ID                                 : A_AC3
    Duration                                 : 2 h 16 min
    Bit rate mode                            : Constant
    Bit rate                                 : 640 kb/s
    Channel(s)                               : 6 channels
    Channel positions                        : Front: L C R, Side: L R, LFE
    Sampling rate                            : 48.0 kHz
    Frame rate                               : 31.250 FPS (1536 SPF)
    Bit depth                                : 16 bits
    Compression mode                         : Lossy
    Stream size                              : 624 MiB (1%)
    Language                                 : English
    Service kind                             : Complete Main
    Default                                  : No
    Forced                                   : No

    Text #1
    ID                                       : 8
    Format                                   : UTF-8
    Codec ID                                 : S_TEXT/UTF8
    Codec ID/Info                            : UTF-8 Plain Text
    Duration                                 : 13 min 42 s
    Bit rate                                 : 5 b/s
    Count of elements                        : 10
    Stream size                              : 554 Bytes (0%)
    Title                                    : Forced
    Language                                 : Russian
    Default                                  : Yes
    Forced                                   : Yes

    Text #2
    ID                                       : 9
    Format                                   : UTF-8
    Codec ID                                 : S_TEXT/UTF8
    Codec ID/Info                            : UTF-8 Plain Text
    Duration                                 : 2 h 9 min
    Bit rate                                 : 68 b/s
    Count of elements                        : 1524
    Stream size                              : 65.2 KiB (0%)
    Title                                    : Full
    Language                                 : Russian
    Default                                  : No
    Forced                                   : No

    Text #3
    ID                                       : 10
    Format                                   : UTF-8
    Codec ID                                 : S_TEXT/UTF8
    Codec ID/Info                            : UTF-8 Plain Text
    Duration                                 : 2 h 9 min
    Bit rate                                 : 44 b/s
    Count of elements                        : 1532
    Stream size                              : 41.8 KiB (0%)
    Title                                    : Full
    Language                                 : English
    Default                                  : No
    Forced                                   : No

    Menu
    00:00:00.000                             : en:Chapter 1
    00:07:45.923                             : en:Chapter 2
    00:14:39.670                             : en:Chapter 3
    00:22:57.542                             : en:Chapter 4
    00:32:58.226                             : en:Chapter 5
    00:41:25.065                             : en:Chapter 6
    00:48:42.502                             : en:Chapter 7
    00:55:10.932                             : en:Chapter 8
    01:03:17.293                             : en:Chapter 9
    01:12:29.011                             : en:Chapter 10
    01:17:51.750                             : en:Chapter 11
    01:24:38.948                             : en:Chapter 12
    01:34:04.555                             : en:Chapter 13
    01:42:59.548                             : en:Chapter 14
    01:52:16.354                             : en:Chapter 15
    02:00:52.912                             : en:Chapter 16Свернуть


    Скриншоты
    [screen]http://img12.lostpic.net/2018/02/13/9bf03245e695a80e7fefef28975696de.png[/screen][screen]http://img12.lostpic.net/2018/02/13/c765e4b98f634ecffb9a829002fad83e.png[/screen][screen]http://img12.lostpic.net/2018/02/13/5f15794b665f8350c8049a76d42c4c77.png[/screen][screen]http://img12.lostpic.net/2018/02/13/12cec1d39bda15c3047a08e20efd69e1.png[/screen][screen]http://img12.lostpic.net/2018/02/13/16f15c1820a9a6d659a6b03b705dcd04.png[/screen]Свернуть
    Похожие раздачи Искать похожие
    Инструкция по скачиванию
     1  Качаем uTorrent версии 2.0 и выше
     2  После установки, жмем выше под постером на ссылку Скачать [MediaGet] или Скачать .torrent
     3  Открываем скачанный файл через соответствующий клиент: MediaGet или uTorrent
     4  Ждем пока подключатся участники
     5  Качаем
    Комментарии о  Новый Человек-паук / The Amazing Spider-Man | BDRemux 
    Ближайшее в кино
    Вверх