• Игры для PS4
  • Игры для PS3
  • Игры для XBOX360
  • Игры для PC
  • Игры для PS2
  • Игры для PSP
  • Для телефонов
  • Музыка
  • Книги / Журналы
  • Обои
  • Опрос
    Откуда Вы о нас узнали?
      0
    • От знакомых2,1,false,300,full
    • Из социальных сетей2,2,false,300,full
    • Из поисковых систем2,3,false,300,full
    • Другое2,4,false,300,full
    Статистика
    Всего онлайн -
    Гостей -
    Пользователей -
    Короли трекера
    
    Благодарности () Закрыть
    Информация о фильме
    Название: Смертельная игра
    Оригинальное название: Headgame

    Год выхода: 2018
    Жанр: ужасы
    Режиссер: Стивен Джудд
    В ролях: Леонард Робертс, Джэми Хилл, Ханна Миддлтон, Карли Стил, Камерон Бауэн, Сидни Эллисон, Эдуард Гелхаус, Крис Хэйес, Прессли Кокер, Марина Орлова и другие
    О фильме:
    Компания незнакомых молодых людей просыпается запертой в закрытом помещении. Каждый из них обладает какими-то своими физическими особенностями и каждый из них теперь участник игры. Правила просты; есть дверь, есть ключ и только один из них может выйти.



    Страна: США, Sunday Funday Films, Untethered Productions, 2nd Nature Films
    Продолжительность: 01:32:32
    Перевод: Любительский (двухголосый закадровый) | HiWay Grope

    Файл
    Кодек: XviD
    Качество: WEBRip
    Видео: 720x400, 23.976 fps, ~1893 kbps avg, 0.27 bit/pixel
    Звук:
    Аудио rus: AC3, 48 kHz, 6 ch, 224 Kbps
    Субтитры: отсутствуют

    Реклама: присутствует

    [img]http://i74.fastpic.ru/big/2016/0302/bf/6fb776c0ac4235a995b1a4562c6237bf.gif[/img][img]http://i75.fastpic.ru/big/2016/0302/a2/96efd132123f57b40a6f02abd26164a2.jpeg[/img]

    Семпл

    MediaInfo

    General
    Complete name                            : E:Headgame.2018.WEBRip.HiWayGropeHeadgame.2018.WEBRip.HiWayGrope.avi
    Format                                   : AVI
    Format/Info                              : Audio Video Interleave
    File size                                : 1.37 GiB
    Duration                                 : 1h 32mn
    Overall bit rate                         : 2 126 Kbps
    Writing application                      : VirtualDubMod 1.5.10.3 (build 2550/release)
    Writing library                          : VirtualDubMod build 2550/release

    Video
    ID                                       : 0
    Format                                   : MPEG-4 Visual
    Format profile                           : Advanced Simple@L5
    Format settings, BVOP                    : 1
    Format settings, QPel                    : No
    Format settings, GMC                     : No warppoints
    Format settings, Matrix                  : Default (MPEG)
    Codec ID                                 : XVID
    Codec ID/Hint                            : XviD
    Duration                                 : 1h 32mn
    Bit rate                                 : 1 893 Kbps
    Width                                    : 720 pixels
    Height                                   : 400 pixels
    Display aspect ratio                     : 16:9
    Frame rate                               : 23.976 (23976/1000) fps
    Color space                              : YUV
    Chroma subsampling                       : 4:2:0
    Bit depth                                : 8 bits
    Scan type                                : Progressive
    Compression mode                         : Lossy
    Bits/(Pixel*Frame)                       : 0.274
    Stream size                              : 1.22 GiB (89%)
    Writing library                          : XviD 73

    Audio
    ID                                       : 1
    Format                                   : AC-3
    Format/Info                              : Audio Coding 3
    Mode extension                           : CM (complete main)
    Format settings, Endianness              : Big
    Codec ID                                 : 2000
    Duration                                 : 1h 32mn
    Bit rate mode                            : Constant
    Bit rate                                 : 224 Kbps
    Channel(s)                               : 6 channels
    Channel positions                        : Front: L C R, Side: L R, LFE
    Sampling rate                            : 48.0 KHz
    Frame rate                               : 31.250 fps (1536 spf)
    Compression mode                         : Lossy
    Stream size                              : 148 MiB (11%)
    Alignment                                : Split accross interleaves
    Interleave, duration                     : 42 ms (1.00 video frame)
    Interleave, preload duration             : 500 ms

    Свернуть


    Инструкция по скачиванию
     1  Качаем uTorrent версии 2.0 и выше
     2  После установки, жмем выше под постером на ссылку Скачать [MediaGet] или Скачать .torrent
     3  Открываем скачанный файл через соответствующий клиент: MediaGet или uTorrent
     4  Ждем пока подключатся участники
     5  Качаем
    Комментарии о  Смертельная игра / Headgame | WEBRip 
    Ближайшее в кино
    Вверх