• Игры для PS4
  • Игры для PS3
  • Игры для XBOX360
  • Игры для PC
  • Игры для PS2
  • Игры для PSP
  • Для телефонов
  • Музыка
  • Книги/Журналы
  • Обои
  •  
    Опрос
    Откуда Вы о нас узнали?
      0
    • От знакомых2,1,false,300,full
    • Из социальных сетей2,2,false,300,full
    • Из поисковых систем2,3,false,300,full
    • Другое2,4,false,300,full
    Статистика
    Загрузка...
    Дом ночных призраков / House On Haunted Hill | HDRip-AVC
    Статус  Проверено
    В закладки
    Модератор: Max

    Дом ночных призраков / House On Haunted Hill | HDRip-AVC [Фильмы 1999] скачать торрентом/torrent бесплатно

    Год выхода
    Язык
    Закачал
    Аноним | 13 февраля в 23ч 34м 56с
    Раздел
    Отзывов
    0
    Раздают: 4 Качают: 0 Скачали: 6 Размер: 746.12 MB
    Инфо о раздаче | Благодарности |
    0/5
    0
    0 5 0
    Поддержи нас — расскажи друзьям!
    Orbitum
    Новый интернет-браузер Быстрее загружает сайты Экономит интернет—трафик Меняет оформление страницы ВК Блокирует всю рекламу на сайтах Загружает торренты как

    µTorrent

    клиент
    Объеденяет все твои чаты из соц. сетей в один Проигрывает твою музыку не заходя во ВКонтакте
    Скачать и многое другое... Подробности на сайте производителя
    Информация о фильме
    Название: Дом ночных призраков
    Оригинальное название: House On Haunted Hill
    Год выхода: 1999
    Жанр:  Ужасы, триллер, детектив
    Режиссер: Уильям Мэлоун
    В ролях: Джеффри Раш, Фамке Янссен, Тэй Диггз, Питер Галлахер, Крис Кэттэн, Эли Лартер, Бриджит Уилсон, Макс Перлих, Джеффри Комбс, Дик Биби, Славица Йован, Лиза Лоб, Джеймс Марстерс

    О фильме :
    Эксцентричный миллионер по имени Стивен Прайс решает отметить день рождения своей горячо нелюбимой жены Эвилен в заброшенном доме с жутким прошлым. В нём много лет назад некий доктор-маньяк проводил бесчеловечные эксперименты и зверски мучил своих пациентов. Список приглашённых кто-то загадочным образом подменяет, и в дом на холме приезжают совершенно незнакомые друг другу люди. Прайс предлагает миллион долларов каждому, кто останется в доме до утра. Душераздирающая вечеринка начинается!



    Страна: США
    Студия: CLT-UFA International, Dark Castle Entertainment, Helkon Media AG, J&M Entertainment
    Продолжительность: 01:32:42
    Перевод: Профессиональный (полное дублирование)

    Файл
    Формат: MKV
    Качество: HDRip-AVC
    Видео: MPEG-4 AVC, 720x404, ~ 1047 Кбит/с
    Аудио: [img]http://i93.fastpic.ru/big/2017/0727/c0/4b72f0369a3393219ed5935e91fc15c0.gif[/img] AAC-LC, 2 ch, ~ 76 Кбит/с
    Субтитры: Русские (2 варианта), английские

    MI
    Общее
    Уникальный идентификатор : 234616930907962815023325334447841186079 (0xB08193C7F0900D83A0C3A3762821911F)
    Полное имя : D:MOVIESHouse.on.Haunted.Hill.1999.ExKinoRay.mkv
    Формат : Matroska
    Версия формата : Version 4 / Version 2
    Размер файла : 746 Мбайт
    Продолжительность : 1 ч. 32 м.
    Общий поток : 1125 Кбит/сек
    Дата кодирования : UTC 2018-02-13 19:52:26
    Программа кодирования : mkvmerge v15.0.0 ("Duel with the Devil") 64-bit
    Библиотека кодирования : libebml v1.3.5 + libmatroska v1.4.5

    Видео
    Идентификатор : 1
    Формат : AVC
    Формат/Информация : Advanced Video Codec
    Профиль формата : High@L4.1
    Параметр CABAC формата : Да
    Параметр RefFrames формата : 10 кадров
    Идентификатор кодека : V_MPEG4/ISO/AVC
    Продолжительность : 1 ч. 32 м.
    Битрейт : 1047 Кбит/сек
    Ширина : 720 пикселей
    Высота : 404 пикселя
    Соотношение сторон : 16:9
    Режим частоты кадров : Постоянный
    Частота кадров : 24,000 кадра/сек
    Цветовое пространство : YUV
    Субдискретизация насыщенности : 4:2:0
    Битовая глубина : 8 бит
    Тип развёртки : Прогрессивная
    Бит/(Пиксели*Кадры) : 0.150
    Размер потока : 694 Мбайт (93%)
    Библиотека кодирования : x264 core 152 r2851 ba24899
    Настройки программы : cabac=1 / ref=10 / deblock=1:-3:-3 / analyse=0x3:0x133 / me=umh / subme=11 / psy=1 / psy_rd=1.00:0.11 / mixed_ref=1 / me_range=32 / chroma_me=1 / trellis=2 / 8x8dct=1 / cqm=0 / deadzone=21,11 / fast_pskip=0 / chroma_qp_offset=-3 / threads=6 / lookahead_threads=1 / sliced_threads=0 / nr=0 / decimate=0 / interlaced=0 / bluray_compat=0 / constrained_intra=0 / bframes=10 / b_pyramid=2 / b_adapt=2 / b_bias=0 / direct=3 / weightb=1 / open_gop=0 / weightp=2 / keyint=240 / keyint_min=23 / scenecut=40 / intra_refresh=0 / rc_lookahead=40 / rc=2pass / mbtree=0 / bitrate=1047 / ratetol=1.0 / qcomp=0.60 / qpmin=0 / qpmax=69 / qpstep=4 / cplxblur=20.0 / qblur=0.5 / vbv_maxrate=50000 / vbv_bufsize=62500 / nal_hrd=none / filler=0 / ip_ratio=1.40 / pb_ratio=1.30 / aq=1:1.00
    Default : Да
    Forced : Нет

    Аудио
    Идентификатор : 2
    Формат : AAC
    Формат/Информация : Advanced Audio Codec
    Профиль формата : LC
    Идентификатор кодека : A_AAC
    Продолжительность : 1 ч. 32 м.
    Битрейт : 76,0 Кбит/сек
    Каналы : 2 канала
    Расположение каналов : Front: L R
    Частота : 48,0 КГц
    Частота кадров : 46,875 кадров/сек (1024 SPF)
    Метод сжатия : С потерями
    Задержка видео : 9 мс.
    Размер потока : 50,4 Мбайт (7%)
    Default : Да
    Forced : Нет

    Текст #1
    Идентификатор : 3
    Формат : UTF-8
    Идентификатор кодека : S_TEXT/UTF8
    Идентификатор кодека/Информация : UTF-8 Plain Text
    Продолжительность : 1 ч. 27 м.
    Битрейт : 68 бит/сек
    ElementCount : 720
    Размер потока : 44,1 Кбайт (0%)
    Заголовок : R5
    Язык : Russian
    Default : Нет
    Forced : Нет

    Текст #2
    Идентификатор : 4
    Формат : UTF-8
    Идентификатор кодека : S_TEXT/UTF8
    Идентификатор кодека/Информация : UTF-8 Plain Text
    Продолжительность : 1 ч. 27 м.
    Битрейт : 69 бит/сек
    ElementCount : 819
    Размер потока : 44,6 Кбайт (0%)
    Язык : Russian
    Default : Нет
    Forced : Нет

    Текст #3
    Идентификатор : 5
    Формат : UTF-8
    Идентификатор кодека : S_TEXT/UTF8
    Идентификатор кодека/Информация : UTF-8 Plain Text
    Продолжительность : 1 ч. 22 м.
    Битрейт : 44 бит/сек
    ElementCount : 832
    Размер потока : 27,2 Кбайт (0%)
    Язык : English
    Default : Нет
    Forced : Нет

    Меню
    00:00:00.000 : en:00:00:00.000
    00:07:05.167 : en:00:07:05.167
    00:11:44.917 : en:00:11:44.917
    00:18:07.000 : en:00:18:07.000
    00:22:55.167 : en:00:22:55.167
    00:29:53.208 : en:00:29:53.208
    00:35:50.667 : en:00:35:50.667
    00:41:00.042 : en:00:41:00.042
    00:47:22.958 : en:00:47:22.958
    00:52:36.042 : en:00:52:36.042
    00:59:24.458 : en:00:59:24.458
    01:05:42.667 : en:01:05:42.667
    01:09:47.042 : en:01:09:47.042
    01:15:04.458 : en:01:15:04.458
    01:21:32.792 : en:01:21:32.792
    01:28:29.917 : en:01:28:29.917



    Скриншоты
    [img]http://i103.fastpic.ru/big/2018/0213/bf/e9d20c68bf305b02f23a9f6b578f0ebf.jpg[/img][img]http://i102.fastpic.ru/big/2018/0213/d7/81275b3ee4b7089e650426e7d0749cd7.jpg[/img][img]http://i100.fastpic.ru/big/2018/0213/a4/d19e6f0dd3463e58b3e1675c7fa088a4.jpg[/img][img]http://i101.fastpic.ru/big/2018/0213/66/dcf93670875a49077c3f1a6114466b66.jpg[/img]

    [img]http://i101.fastpic.ru/big/2018/0213/41/363908d8db914e1ece074cf5e51ba541.jpg[/img][img]http://i99.fastpic.ru/big/2018/0213/28/bc6b61e6558a20c9032ca0d9e2741c28.jpg[/img][img]http://i103.fastpic.ru/big/2018/0213/4d/a1e8ec735922d63160b6caacd8af434d.jpg[/img][img]http://i102.fastpic.ru/big/2018/0213/9a/981a0070c45211f45661f1844297bb9a.jpg[/img]
    Еще похожие »

    Как скачать?
    1. Качаем UTorrent версии 2.0 и выше отсюда
    2. После установки, жмем на ссылку Скачать торрент.
    3. Открываем его через utorrent.
    4. Ждем пока подключатся участники.
    5. Качаем.


    Комментарии о Дом ночных призраков / House On Haunted Hill | HDRip-AVC
    Добавлять комментарии могут только зарегистрированные пользователи

    Зарегистрироваться или Войти


    Ближайшее в кино
    • МУЛЬТ в кино. Выпуск №79. Как в сказке! дата выхода 18 августа 2018МУЛЬТ в кино. Выпуск №79. Как в сказке!
      Дата выхода: 18 августа 2018
    • 1007425|Днюха!|23 августа 2018|200|300Днюха!
      Дата выхода: 23 августа 2018
    • 921938|22 мили|23 августа 2018|200|30022 мили
      Дата выхода: 23 августа 2018
    • 934956|Альфа|23 августа 2018|200|300Альфа
      Дата выхода: 23 августа 2018
    • 1023331|Отель «Артемида»|23 августа 2018|200|300Отель «Артемида»
      Дата выхода: 23 августа 2018
    • 1008748|Не волнуйся, он далеко не уйдёт|23 августа 2018|200|300Не волнуйся, он далеко не уйдёт
      Дата выхода: 23 августа 2018
    • 1008240|Последний беспредел|23 августа 2018|200|300Последний беспредел
      Дата выхода: 23 августа 2018
    • 789159|Шоу Мистико|23 августа 2018|200|300Шоу Мистико
      Дата выхода: 23 августа 2018
    • 986638|Принцесса и дракон|23 августа 2018|200|300Принцесса и дракон
      Дата выхода: 23 августа 2018
    • 675470|Голубая игуана|23 августа 2018|200|300Голубая игуана
      Дата выхода: 23 августа 2018
    • 1108921|Вилли и крутые тачки|23 августа 2018|200|300Вилли и крутые тачки
      Дата выхода: 23 августа 2018
    • 380|2001 год: Космическая одиссея|30 августа 2018|200|3002001 год: Космическая одиссея
      Дата выхода: 30 августа 2018
    • 1048294|Как женить холостяка|30 августа 2018|200|300Как женить холостяка
      Дата выхода: 30 августа 2018
    • 1114917|Гоголь. Страшная месть|30 августа 2018|200|300Гоголь. Страшная месть
      Дата выхода: 30 августа 2018
    • 939770|Выжившие|30 августа 2018|200|300Выжившие
      Дата выхода: 30 августа 2018
    Вверх