• Игры для PS4
  • Игры для PS3
  • Игры для XBOX360
  • Игры для PC
  • Игры для PS2
  • Игры для PSP
  • Для телефонов
  • Музыка
  • Книги / Журналы
  • Обои
  • Опрос
    Удобен ли сайт в использовании?
      0
    • Очень удобен, все понятно1,1,false,300,full
    • Удобен1,2,false,300,full
    • Средне1,3,false,300,full
    • Неудобен, трудно ориентироваться1,4,false,300,full
    • Совсем неудобен1,5,false,300,full
    Статистика
    Всего онлайн -
    Гостей -
    Пользователей -
    Короли трекера
    Благодарности () Закрыть
    Информация о фильме
    Название: Пир драконов
    Оригинальное: Dragons Feast
    Год выхода: 2012
    Жанр: Документальный
    Режиссер: Крейг Фостер и Дэймон Фостер

    О фильме:
    На протяжении двухсот пятидесяти миллионов лет, эволюционировал этот вид, огромная, прекрасно приспособленная рептилия - Нильский крокодил. До недавнего времени, погружение с этими опасными созданиями считалось невозможным. Но как и со многими хищниками, важно то, как вы будите обращаться с ними. И я собираюсь проверить это утверждение на практике. Я иду на обдуманный риск: Хочу погрузится с крокодилами во время их пира. Смогу ли я приблизится к ним, не подвергнувшись нападению? Увидят ли они во мне такого же хищника или потенциальную добычу? Смогу ли я уцелеть среди них во время кормления? Не думаю что если крокодил съест меня, на нём это плохо отразится - все ожидают что именно так и произойдёт.

    Страна: США
    Продолжительность: 00:44:59
    Перевод: Дублированный

    Файл
    Кодек: MPEG-TS
    Качество: HDTV 1080i
    Видео: 1920x1080, 7401 Кбит/с, 25 кадр/с
    Аудио 1: Русский, MP2, 2 канала, 192 Кбит/с
    Аудио 2: Английский, MP2, 2 канала, 192 Кбит/с

    MI
    Общее
    Идентификатор                            : 1 (0x1)
    Полное имя                               : D:Пир драконовDragons Feast (Rus-MP2, HDTV-1080i, h264).ts
    Формат                                   : MPEG-TS
    Размер файла                             : 2,51 Гбайт
    Продолжительность                        : 44 м. 59 с.
    Режим общего битрейта                    : Переменный
    Общий поток                              : 7990 Кбит/сек

    Видео
    Идентификатор                            : 321 (0x141)
    Идентификатор меню                       : 1 (0x1)
    Формат                                   : AVC
    Формат/Информация                        : Advanced Video Codec
    Профиль формата                          : High@L4
    Настройки формата                        : CABAC / 3 Ref Frames
    Параметр CABAC формата                   : Да
    Параметр RefFrames формата               : 3 кадра
    Идентификатор кодека                     : 27
    Продолжительность                        : 44 м. 59 с.
    Битрейт                                  : 7401 Кбит/сек
    Ширина                                   : 1920 пикселей
    Высота                                   : 1080 пикселей
    Соотношение сторон                       : 16:9
    Частота кадров                           : 25,000 кадров/сек
    Стандарт вещания                         : Component
    Цветовое пространство                    : YUV
    Субдискретизация насыщенности            : 4:2:0
    Битовая глубина                          : 8 бит
    Тип развёртки                            : Чересстрочная
    Метод сохранения типа развёртки          : Раздельные поля
    Порядок развёртки                        : Верхнее поле первое
    Бит/(Пиксели*Кадры)                      : 0.143
    Размер потока                            : 2,33 Гбайт (93%)
    Цветовой диапазон                        : Limited
    Основные цвета                           : BT.709
    Характеристики трансфера                 : BT.709
    Коэффициенты матрицы                     : BT.709

    Аудио
    Идентификатор                            : 401 (0x191)
    Идентификатор меню                       : 1 (0x1)
    Формат                                   : MPEG Audio
    Версия формата                           : Version 1
    Профиль формата                          : Layer 2
    Идентификатор кодека                     : 3
    Продолжительность                        : 44 м. 59 с.
    Вид битрейта                             : Постоянный
    Битрейт                                  : 192 Кбит/сек
    Каналы                                   : 2 канала
    Частота                                  : 48,0 КГц
    Частота кадров                           : 41,667 кадра/сек (1152 SPF)
    Метод сжатия                             : С потерями
    Размер потока                            : 61,8 Мбайт (2%)
    Язык                                     : EnglishСвернуть


    Трейлер


    Скриншоты
    [screen]http://i3.imageban.ru/out/2018/02/14/c52fd359ab346877ec89e5a0f577d8bb.jpg[/screen][screen]http://i5.imageban.ru/out/2018/02/14/90ecb1ba7cb3fba6a61a2ce5a26c4f27.jpg[/screen][screen]http://i2.imageban.ru/out/2018/02/14/03ef253b1476752f08051396d7bf3413.jpg[/screen][screen]http://i3.imageban.ru/out/2018/02/14/b0282bae0b10c83660cfaea210062be8.jpg[/screen][screen]http://i1.imageban.ru/out/2018/02/14/3248d0a9fb288c8624d0f3d2405b9b35.jpg[/screen][screen]http://i1.imageban.ru/out/2018/02/14/7383f484545f16b3ca93fd22e2d26f25.jpg[/screen][screen]http://i4.imageban.ru/out/2018/02/14/e85472035d20bff242534fb5ad7385c8.jpg[/screen][screen]http://i6.imageban.ru/out/2018/02/14/c2f8db7a1a6739441a1a3191d8184261.jpg[/screen][screen]http://i5.imageban.ru/out/2018/02/14/948ce40ab6b3c61c4a37c36be6498cdc.jpg[/screen][screen]http://i4.imageban.ru/out/2018/02/14/c86f63e28585187ea68db50814564ea7.jpg[/screen][screen]http://i1.imageban.ru/out/2018/02/14/d3e28feb8dbcd43d6ce15bc0955aa87c.jpg[/screen][screen]http://i1.imageban.ru/out/2018/02/14/a121d2018e123d08cdaa5abcd7c6fc41.jpg[/screen][screen]http://i3.imageban.ru/out/2018/02/14/010f92d3b5ba9f1b6b80b5bc5d45eeb0.jpg[/screen][screen]http://i1.imageban.ru/out/2018/02/14/baee65474a40d1a9e2cb041153d60a0b.jpg[/screen]Свернуть
    Похожие раздачи Искать похожие
    Инструкция по скачиванию
     1  Качаем uTorrent версии 2.0 и выше
     2  После установки, жмем выше под постером на ссылку Скачать [MediaGet] или Скачать .torrent
     3  Открываем скачанный файл через соответствующий клиент: MediaGet или uTorrent
     4  Ждем пока подключатся участники
     5  Качаем
    Комментарии о  Nat Geo Wild: Пир драконов / Dragons Feast | HDTV 1080i 
    Ближайшее в кино
    Вверх