• Игры для PS3
  • Игры для XBOX360
  • Игры для PC
  • Игры для PS2
  • Игры для PSP
  • Для телефонов
  • Музыка
  • Книги/Журналы
  • Обои
  •  
    Опрос
    Удобен ли сайт в использовании?
      0
    • Очень удобен, все понятно1,1,false,300,full
    • Удобен1,2,false,300,full
    • Средне1,3,false,300,full
    • Неудобен, трудно ориентироваться1,4,false,300,full
    • Совсем неудобен1,5,false,300,full
    Статистика
    Загрузка...
    Видоизмененный углерод / Altered Carbon [Сезон 01 | 01 серия из 10] | HDRip-HEVC 1080p
    Статус  Проверено
    В закладки
    Модератор: Max

    Видоизмененный углерод / Altered Carbon [Сезон 01 | 01 серия из 10] | HDRip-HEVC 1080p [Сериалы 2018] скачать торрентом/torrent бесплатно

    Год выхода
    Категории
    Язык
    Закачал
    Аноним | 14 февраля 2018 в 10ч 17м 57с
    Раздел
    Отзывов
    0
    Раздают: 17 Качают: 4 Скачали: 78 Размер: 2.56 GB
    Инфо о раздаче | Благодарности |
    0/5
    0
    Поддержи нас — расскажи друзьям!
    Orbitum
    Новый интернет-браузер Быстрее загружает сайты Экономит интернет—трафик Меняет оформление страницы ВК Блокирует всю рекламу на сайтах Загружает торренты как

    µTorrent

    клиент
    Объеденяет все твои чаты из соц. сетей в один Проигрывает твою музыку не заходя во ВКонтакте
    Скачать и многое другое... Подробности на сайте производителя
    Информация о фильме
    Название: Видоизмененный углерод
    Оригинальное название: Altered Carbon
    Год выхода: 2018
    Жанр: фантастика, триллер, драма
    Режиссер: Ута Бризвитц, Питер Хор, Ник Харран
    Страна: США
    Студия: Mythology Entertainment, Skydance Television
    Продолжительность: ~00:58:00 серия
    Перевод: Профессиональный (многоголосый, закадровый) AlexFilm + Профессиональный (многоголосый, закадровый) LostFilm + Профессиональный (многоголосый, закадровый) NewStudio

    В ролях: Антонио Марциале (Isaac Bancroft), Крис Коннер (Poe), Хиро Канагава (Captain Tanaka), Кристин Леман (Miriam Bancroft), Алика Аутран (Okulov), Тич Грант (Jimmy DeSoto), Юэль Киннаман (Takeshi Kovacs), Хэйли Лоу (Lizzie Elliot), Заф Пару (Curtis), Джеймс Пьюрфой (Laurens Bancroft), Валид Зуэйтер (Abboud), Адам Буш (Mickey)

    О фильме:
    «Видоизмененный углерод» — это фантастический боевик онлайн-сервиса Netflix, снятый по мотивам романа Ричарда Моргана 2002 года. Шоураннером проекта выступила Лаэта Калогридис («Остров проклятых»), а пилотную серию снял Мигель Сапочник («Игра престолов», «За гранью») . Сериал вобрал в себя лучшее от жанра киберпанк: размышления о последствиях технологического прогресса, антиутопический мир будущего, эксперименты с человеческим телом и сознанием, конфликты между простыми людьми и мегакорпорациями и многое другое. Критикам сериал напомнил одновременно книги Уильяма Гибсона, считающегося основателем киберпанка, Нила Стивенсона, а также фильмы «Матрица», «Бегущий по лезвию» и даже немного «Голодные игры». Но все эти отсылки нисколько не делают «Видоизмененный углерод» вторичным продуктом: именно благодаря смелому смешению стилей, нагромождению заимствований, визуальным эффектам а-ля Гаспар Ноэ и множеству других малосочетаемых друг с другом элементов это шоу и становится фактически эталоном киберпанка. Оно амбициозное, вычурное, дерзкое, грубое, забавное, шокирующее, местами аляповатое, но при этом умное. Главные роли исполняют Юэль Киннаман, хорошо известный сериаломанам по триллеру «Убийство», и Джеймс Пьюрфой из «Последователей».  

    Действие разворачивается в далеком будущем, где смерть уже стала понятием условным, поскольку ученые нашли способ перезагружать человеческое сознание из одного тела в другое. Одним из тех, кому посчастливилось воскреснуть, стал бывший элитный военный Такеси Ковач, которого вернули к жизни после 250 лет хранения. Его тело является собственностью корпорации «Бэнкрофт Индастриз», оно оснащено нейрокамерой военного образца и боевой мышечной памятью, но этот факт главного героя не особо радует, как и причудливый утопичный мир, в котором он оказался. По грязным улицам бродят странные личности с пустыми глазами, небоскребы подпирают зловещую темноту, а густой туман таит множество неприятных сюрпризов. Вскоре Ковач узнает, что своим воскрешением он обязан миллиардеру Лоренсу Бэнкрофту, который очень хочет раскрыть тайну собственного убийства, представленного как суицид. К сожалению, все улики пропали вместе с телом, поэтому Такэси заявляет своему «работодателю», что для выполнения столь сложной миссии ему необходим доступ ко всей информации компании. Однако ответы, которые он там может найти, вряд ли кому-то понравятся. В свою очередь Бэнкрофт с легкостью вернет Ковача в небытие, если тот не справится с заданием или зайдет в своих поисках слишком далеко. Ситуация осложняется тем, что в этом мире никому нельзя верить, ведь любой человек может оказаться не тем, за кого себя выдает.



    Файл
    Качество: HDRip-HEVC 1080p / 60 FPS by Cryptor (исходник WEBRip 2160p)
    Формат: MKV
    Видео кодек: x265
    Аудио кодек: AC3
    Видео: HEVC, 1920x960, ~4 503 Кбит/сек, 60.000 кадр/сек, 10 bit
    Аудио#1: AC3 / 5.1 / 48 kHz / 448 kbps / 16 bit | Многоголосый закадровый, AlexFilm
    Аудио#2: AC3 / 5.1 / 48 kHz / 448 kbps / 16 bit | Многоголосый закадровый, LostFilm
    Аудио#3: AC3 / 5.1 / 48 kHz / 384 kbps / 16 bit | Многоголосый закадровый, NewStudio
    Аудио#4: E-AC3 / 5.1 / 48 kHz / 448 kbps / 16 bit | Оригинал
    Субтитры: Russian (PhysKids), English, English (SDH)

    [img]http://img10.lostpic.net/2016/02/26/ef6050b4a570598fd171ebc02f3c3cc8.gif[/img]

    Список серий

    01. Out of the Past / Из прошлого



    Медиаинфо

    General
    Unique ID                   : 266041108616446368455253359589721407361 (0xC825A75C4E86AD111CAF758CA0847F81)
    Complete name               : D:TorrentsAltered.Carbon.S01.1080p.FullHD.60FPS.[Cryptor]Altered.Carbon.S01E01.1080p.FullHD.60FPS.[Cryptor].mkv
    Format                      : Matroska
    Format version              : Version 4 / Version 2
    File size                   : 2.56 GiB
    Duration                    : 58 min 53 s
    Overall bit rate            : 6 217 kb/s
    Movie name                  : Видоизмененный углерод / Altered Carbon
    Encoded date                : UTC 2018-02-13 13:26:33
    Writing application         : mkvmerge v20.0.0 ("I Am The Sun") 64-bit
    Writing library             : libebml v1.3.5 + libmatroska v1.4.8
    Cover                       : Yes
    Attachments                 : Cover.jpg

    Video
    ID                          : 1
    Format                      : HEVC
    Format/Info                 : High Efficiency Video Coding
    Format profile              : Main 10@L4.1@Main
    Codec ID                    : V_MPEGH/ISO/HEVC
    Duration                    : 58 min 53 s
    Bit rate                    : 4 503 kb/s
    Width                       : 1 920 pixels
    Height                      : 960 pixels
    Display aspect ratio        : 2.000
    Frame rate mode             : Constant
    Frame rate                  : 60.000 FPS
    Color space                 : YUV
    Chroma subsampling          : 4:2:0
    Bit depth                   : 10 bits
    Bits/(Pixel*Frame)          : 0.041
    Stream size                 : 1.85 GiB (72%)
    Title                       : HDRip by Cryptor
    Writing library             : x265 2.6+37-1949157705ce:[Windows][GCC 6.3.0][64 bit] 10bit
    Encoding settings           : cpuid=1050111 / frame-threads=3 / numa-pools=8 / wpp / no-pmode / no-pme / no-psnr / no-ssim / log-level=2 / input-csp=1 / input-res=1920x960 / interlace=0 / total-frames=212035 / level-idc=0 / high-tier=1 / uhd-bd=0 / ref=3 / no-allow-non-conformance / no-repeat-headers / annexb / no-aud / no-hrd / info / hash=0 / no-temporal-layers / open-gop / min-keyint=25 / keyint=250 / gop-lookahead=0 / bframes=4 / b-adapt=2 / b-pyramid / bframe-bias=0 / rc-lookahead=20 / lookahead-slices=6 / scenecut=40 / radl=0 / no-intra-refresh / ctu=64 / min-cu-size=8 / no-rect / no-amp / max-tu-size=32 / tu-inter-depth=1 / tu-intra-depth=1 / limit-tu=0 / rdoq-level=0 / dynamic-rd=0.00 / no-ssim-rd / signhide / no-tskip / nr-intra=0 / nr-inter=0 / no-constrained-intra / strong-intra-smoothing / max-merge=2 / limit-refs=3 / no-limit-modes / me=1 / subme=2 / merange=57 / temporal-mvp / weightp / no-weightb / no-analyze-src-pics / deblock=0:0 / sao / no-sao-non-deblock / rd=3 / no-early-skip / rskip / no-fast-intra / no-tskip-fast / no-cu-lossless / no-b-intra / no-splitrd-skip / rdpenalty=0 / psy-rd=2.00 / psy-rdoq=0.00 / no-rd-refine / no-lossless / cbqpoffs=0 / crqpoffs=0 / rc=crf / crf=18.0 / qcomp=0.60 / qpstep=4 / stats-write=0 / stats-read=0 / ipratio=1.40 / pbratio=1.30 / aq-mode=1 / aq-strength=1.00 / cutree / zone-count=0 / no-strict-cbr / qg-size=32 / no-rc-grain / qpmax=69 / qpmin=0 / no-const-vbv / sar=1 / overscan=0 / videoformat=5 / range=0 / colorprim=1 / transfer=1 / colormatrix=1 / chromaloc=0 / display-window=0 / max-cll=0,0 / min-luma=0 / max-luma=1023 / log2-max-poc-lsb=8 / vui-timing-info / vui-hrd-info / slices=1 / no-opt-qp-pps / no-opt-ref-list-length-pps / no-multi-pass-opt-rps / scenecut-bias=0.05 / no-opt-cu-delta-qp / no-aq-motion / no-hdr / no-hdr-opt / no-dhdr10-opt / analysis-reuse-level=5 / scale-factor=0 / refine-intra=0 / refine-inter=0 / refine-mv=0 / no-limit-sao / ctu-info=0 / no-lowpass-dct / refine-mv-type=0 / copy-pic=1
    Default                     : Yes
    Forced                      : No
    Color range                 : Limited
    Color primaries             : BT.709
    Transfer characteristics    : BT.709
    Matrix coefficients         : BT.709

    Audio #1
    ID                          : 2
    Format                      : AC-3
    Format/Info                 : Audio Coding 3
    Codec ID                    : A_AC3
    Duration                    : 58 min 2 s
    Bit rate mode               : Constant
    Bit rate                    : 448 kb/s
    Channel(s)                  : 6 channels
    Channel positions           : Front: L C R, Side: L R, LFE
    Sampling rate               : 48.0 kHz
    Frame rate                  : 31.250 FPS (1536 SPF)
    Bit depth                   : 16 bits
    Compression mode            : Lossy
    Stream size                 : 186 MiB (7%)
    Title                       : AlexFilm
    Language                    : Russian
    Service kind                : Complete Main
    Default                     : Yes
    Forced                      : No

    Audio #2
    ID                          : 3
    Format                      : AC-3
    Format/Info                 : Audio Coding 3
    Codec ID                    : A_AC3
    Duration                    : 58 min 2 s
    Bit rate mode               : Constant
    Bit rate                    : 448 kb/s
    Channel(s)                  : 6 channels
    Channel positions           : Front: L C R, Side: L R, LFE
    Sampling rate               : 48.0 kHz
    Frame rate                  : 31.250 FPS (1536 SPF)
    Bit depth                   : 16 bits
    Compression mode            : Lossy
    Stream size                 : 186 MiB (7%)
    Title                       : LostFilm
    Language                    : Russian
    Service kind                : Complete Main
    Default                     : No
    Forced                      : No

    Audio #3
    ID                          : 4
    Format                      : AC-3
    Format/Info                 : Audio Coding 3
    Codec ID                    : A_AC3
    Duration                    : 58 min 2 s
    Bit rate mode               : Constant
    Bit rate                    : 384 kb/s
    Channel(s)                  : 6 channels
    Channel positions           : Front: L C R, Side: L R, LFE
    Sampling rate               : 48.0 kHz
    Frame rate                  : 31.250 FPS (1536 SPF)
    Bit depth                   : 16 bits
    Compression mode            : Lossy
    Stream size                 : 159 MiB (6%)
    Title                       : NewStudio
    Language                    : Russian
    Service kind                : Complete Main
    Default                     : No
    Forced                      : No

    Audio #4
    ID                          : 5
    Format                      : E-AC-3
    Format/Info                 : Enhanced Audio Coding 3
    Format profile              : E-AC-3+Atmos / E-AC-3
    Codec ID                    : A_EAC3
    Duration                    : 58 min 2 s
    Bit rate mode               : Constant
    Bit rate                    : 448 kb/s
    Channel(s)                  : 15 objects / 6 channels
    Channel positions           : 15 objects / Front: L C R, Side: L R, LFE
    Sampling rate               : 48.0 kHz
    Frame rate                  : 187.500 FPS (256 SPF)
    Compression mode            : Lossy
    Stream size                 : 186 MiB (7%)
    Language                    : English
    Service kind                : Complete Main
    Default                     : No
    Forced                      : No

    Text #1
    ID                          : 6
    Format                      : UTF-8
    Codec ID                    : S_TEXT/UTF8
    Codec ID/Info               : UTF-8 Plain Text
    Duration                    : 53 min 37 s
    Bit rate                    : 111 b/s
    Count of elements           : 706
    Stream size                 : 43.7 KiB (0%)
    Title                       : PhysKids
    Language                    : Russian
    Default                     : No
    Forced                      : No

    Text #2
    ID                          : 7
    Format                      : UTF-8
    Codec ID                    : S_TEXT/UTF8
    Codec ID/Info               : UTF-8 Plain Text
    Duration                    : 54 min 57 s
    Bit rate                    : 66 b/s
    Count of elements           : 723
    Stream size                 : 26.7 KiB (0%)
    Language                    : English
    Default                     : No
    Forced                      : No

    Text #3
    ID                          : 8
    Format                      : UTF-8
    Codec ID                    : S_TEXT/UTF8
    Codec ID/Info               : UTF-8 Plain Text
    Duration                    : 57 min 24 s
    Bit rate                    : 72 b/s
    Count of elements           : 828
    Stream size                 : 30.6 KiB (0%)
    Title                       : SDH
    Language                    : English
    Default                     : No
    Forced                      : No




    Внимание!

    - H.265/HEVC (High Efficiency Video Coding) - это новый стандарт кодирования видео.
    - Стандарт H.265/HEVC является логическим продолжением стандарта H.264/AVC (Advanced Video Coding), и характеризуется более эффективными алгоритмами сжатия, а также поддержкой высокого разрешения вплоть до 8K UHD (8192x4320). Первая версия стандарта H.265 была опубликована в начале 2013 года.  
    - Рипы в фомате HEVC поддерживается не всеми аппаратными проигрывателями.
    - Для корректного воспроизведения может потребоваться обновление ПО.
    - Владельцам несовместимого железа просьба не беспокоить, есть альтернативные релизы.

    Еще похожие »

    Как скачать?
    1. Качаем UTorrent версии 2.0 и выше отсюда
    2. После установки, жмем на ссылку Скачать торрент.
    3. Открываем его через utorrent.
    4. Ждем пока подключатся участники.
    5. Качаем.


    Комментарии о Видоизмененный углерод / Altered Carbon [Сезон 01 | 01 серия из 10] | HDRip-HEVC 1080p
    Добавлять комментарии могут только зарегистрированные пользователи

    Зарегистрироваться или Войти


    Ближайшее в кино
    • Секретное досье дата выхода 22 февраля 2018Секретное досье
      Дата выхода: 22 февраля 2018
    • О чём говорят мужчины. Продолжение дата выхода 22 февраля 2018О чём говорят мужчины. Продолжение
      Дата выхода: 22 февраля 2018
    • Все деньги мира дата выхода 22 февраля 2018Все деньги мира
      Дата выхода: 22 февраля 2018
    • Рубеж дата выхода 22 февраля 2018Рубеж
      Дата выхода: 22 февраля 2018
    • Дикий дата выхода 22 февраля 2018Дикий
      Дата выхода: 22 февраля 2018
    • Кикбоксер возвращается дата выхода 22 февраля 2018Кикбоксер возвращается
      Дата выхода: 22 февраля 2018
    • На пределе дата выхода 22 февраля 2018На пределе
      Дата выхода: 22 февраля 2018
    • Ночные игры дата выхода 22 февраля 2018Ночные игры
      Дата выхода: 22 февраля 2018
    • Человек, который спас мир дата выхода 22 февраля 2018Человек, который спас мир
      Дата выхода: 22 февраля 2018
    • Гномы в доме дата выхода 22 февраля 2018Гномы в доме
      Дата выхода: 22 февраля 2018
    • Кошка на раскалённой крыше дата выхода 22 февраля 2018Кошка на раскалённой крыше
      Дата выхода: 22 февраля 2018
    • Вся наша надежда дата выхода 22 февраля 2018Вся наша надежда
      Дата выхода: 22 февраля 2018
    • В Питере – петь. Сергей Шнуров дата выхода 22 февраля 2018В Питере – петь. Сергей Шнуров
      Дата выхода: 22 февраля 2018
    • Богема дата выхода 24 февраля 2018Богема
      Дата выхода: 24 февраля 2018
    • Чёрная Пантера дата выхода 26 февраля 2018Чёрная Пантера
      Дата выхода: 26 февраля 2018
    Вверх