• Игры для PS3
  • Игры для XBOX360
  • Игры для PC
  • Игры для PS2
  • Игры для PSP
  • Для телефонов
  • Музыка
  • Книги/Журналы
  • Обои
  •  
    Опрос
    Удобен ли сайт в использовании?
      0
    • Очень удобен, все понятно1,1,false,300,full
    • Удобен1,2,false,300,full
    • Средне1,3,false,300,full
    • Неудобен, трудно ориентироваться1,4,false,300,full
    • Совсем неудобен1,5,false,300,full
    Статистика
    Загрузка...
    Один дома 4 / Home alone 4 | HDTVRip 720p
    Статус  Проверено
    В закладки
    Модератор: Max

    Один дома 4 / Home alone 4 | HDTVRip 720p [Фильмы 2002] скачать торрентом/torrent бесплатно

    Год выхода
    Категории
    Язык
    Закачал
    Аноним | 14 февраля в 10ч 18м 17с
    Раздел
    Отзывов
    0
    Раздают: 14 Качают: 4 Скачали: 52 Размер: 3.22 GB
    Инфо о раздаче | Благодарности |
    0/5
    0
    0 5 0
    Поддержи нас — расскажи друзьям!
    Orbitum
    Новый интернет-браузер Быстрее загружает сайты Экономит интернет—трафик Меняет оформление страницы ВК Блокирует всю рекламу на сайтах Загружает торренты как

    µTorrent

    клиент
    Объеденяет все твои чаты из соц. сетей в один Проигрывает твою музыку не заходя во ВКонтакте
    Скачать и многое другое... Подробности на сайте производителя
    Информация о фильме
    Название: Один дома 4
    Оригинальное название: Home Alone 4
    Год выпуска: 2002
    Жанр:  Комедия, семейный, рождество
    Режиссер: Род Дэниел
    В ролях: Майк Уинберг, Френч Стюарт, Клер Кэри, Джейсон Бег, Джоанна Гоуинг, Мисси Пайл, Гидеон Джейкобс, Челси Руссо, Шон Майклс

    О фильме:
    Мечта любого маленького хулигана - это когда нет родителей дома и в твоем распоряжении целый дом! Для Кевина МакКалистера, нашего старого знакомого, эти мечты сбываются. На этот раз он готовится встретить Рождество, ожидая родителей и гостей, в огромном супердоме, напичканном самыми невероятными техническими устройствами. И поверьте, праздник будет потрясающим! Особенно для горе-бандитов, задумавших проникнуть в дом. Ведь они еще не знают, с кем им придется иметь дело...


    Страна: США
    Студия: 20th Century Fox Television
    Продолжительность: 01:20:14
    Перевод: Профессиональный многоголосый [Первый канал]

    Файл
    Кодек: MPEG-4 AVC
    Качество: HDTVRip (720p)
    Видео: 5555 Kбит/с, 1280х720
    Звук: Русский (AC3, 2 ch, 192 Кбит/с)

    Инфо-файл



    MI
    General
    Unique ID                   : 243014895119637017053842943786491236523 (0xB6D2F762571B1F9697435E8904C2D0AB)
    Complete name               : D:Home Alone 4 (2002).mkv
    Format                      : Matroska
    Format version              : Version 4 / Version 2
    File size                   : 3.22 GiB
    Duration                    : 1 h 20 min
    Overall bit rate            : 5 749 kb/s
    Movie name                  : Один дама 4 / Home Alone 4 (2002)
    Encoded date                : UTC 2014-06-06 14:30:41
    Writing application         : mkvmerge v6.1.0 ("Old Devil") built on Mar  4 2013 09:10:42
    Writing library             : libebml v1.3.0 + libmatroska v1.4.0

    Video
    ID                          : 1
    Format                      : AVC
    Format/Info                 : Advanced Video Codec
    Format profile              : High@L4.1
    Format settings             : CABAC / 5 Ref Frames
    Format settings, CABAC      : Yes
    Format settings, ReFrames   : 5 frames
    Codec ID                    : V_MPEG4/ISO/AVC
    Duration                    : 1 h 20 min
    Bit rate                    : 5 555 kb/s
    Width                       : 1 280 pixels
    Height                      : 720 pixels
    Display aspect ratio        : 16:9
    Frame rate mode             : Constant
    Frame rate                  : 25.000 FPS
    Color space                 : YUV
    Chroma subsampling          : 4:2:0
    Bit depth                   : 8 bits
    Scan type                   : Progressive
    Bits/(Pixel*Frame)          : 0.241
    Stream size                 : 3.05 GiB (95%)
    Title                       : Один дама 4 / Home Alone 4 (2002) © 20th Century Fox Television, Fox Television Studios (Encoded: -=BaSK=-)
    Writing library             : x264 core 142 r2431kMod ac76440
    Encoding settings           : cabac=1 / ref=5 / deblock=1:-2:-2 / analyse=0x3:0x133 / me=umh / subme=8 / psy=1 / fade_compensate=0.00 / psy_rd=1.00:0.00 / mixed_ref=1 / me_range=64 / chroma_me=1 / trellis=1 / 8x8dct=1 / cqm=0 / deadzone=21,11 / fast_pskip=1 / chroma_qp_offset=-2 / threads=5 / lookahead_threads=1 / sliced_threads=0 / nr=0 / decimate=1 / interlaced=0 / bluray_compat=0 / constrained_intra=0 / fgo=0 / bframes=2 / b_pyramid=2 / b_adapt=2 / b_bias=0 / direct=3 / weightb=1 / open_gop=0 / weightp=2 / keyint=210 / keyint_min=10 / scenecut=40 / intra_refresh=0 / rc_lookahead=40 / rc=2pass / mbtree=1 / bitrate=5555 / ratetol=1.0 / qcomp=0.60 / qpmin=0 / qpmax=69 / qpstep=4 / cplxblur=20.0 / qblur=0.5 / vbv_maxrate=10000 / vbv_bufsize=2000000 / nal_hrd=none / filler=0 / ip_ratio=1.40 / aq=1:1.00
    Language                    : English
    Default                     : Yes
    Forced                      : No

    Audio
    ID                          : 2
    Format                      : MPEG Audio
    Format version              : Version 1
    Format profile              : Layer 2
    Codec ID                    : A_MPEG/L2
    Codec ID/Hint               : MP2
    Duration                    : 1 h 20 min
    Bit rate mode               : Constant
    Bit rate                    : 192 kb/s
    Channel(s)                  : 2 channels
    Sampling rate               : 48.0 kHz
    Compression mode            : Lossy
    Delay relative to video     : 87 ms
    Stream size                 : 110 MiB (3%)
    Title                       : Профессиональный (многоголосый закадровый) 1 канал
    Language                    : Russian
    Default                     : Yes
    Forced                      : No
    Еще похожие »

    Как скачать?
    1. Качаем UTorrent версии 2.0 и выше отсюда
    2. После установки, жмем на ссылку Скачать торрент.
    3. Открываем его через utorrent.
    4. Ждем пока подключатся участники.
    5. Качаем.


    Комментарии о Один дома 4 / Home alone 4 | HDTVRip 720p
    Добавлять комментарии могут только зарегистрированные пользователи

    Зарегистрироваться или Войти


    Ближайшее в кино
    • Хан Соло: Звёздные Войны. Истории дата выхода 24 мая 2018Хан Соло: Звёздные Войны. Истории
      Дата выхода: 24 мая 2018
    • 719155|Секса не будет!!!|24 мая 2018|200|300Секса не будет!!!
      Дата выхода: 24 мая 2018
    • 912012|Распрекрасный принц|24 мая 2018|200|300Распрекрасный принц
      Дата выхода: 24 мая 2018
    • 1006294|Круги дьявола|24 мая 2018|200|300Круги дьявола
      Дата выхода: 24 мая 2018
    • 842709|Садко|24 мая 2018|200|300Садко
      Дата выхода: 24 мая 2018
    • 1044310|Гупёшка|24 мая 2018|200|300Гупёшка
      Дата выхода: 24 мая 2018
    • 893681|Черновик|25 мая 2018|200|300Черновик
      Дата выхода: 25 мая 2018
    • 1138771|МУЛЬТ в кино. Выпуск 76. Лето, привет!|26 мая 2018|200|300МУЛЬТ в кино. Выпуск 76. Лето, привет!
      Дата выхода: 26 мая 2018
    • 959365|Невидимый гость|31 мая 2018|200|300Невидимый гость
      Дата выхода: 31 мая 2018
    • 762500|Красный воробей|31 мая 2018|200|300Красный воробей
      Дата выхода: 31 мая 2018
    • 843121|Как разговаривать с девушками на вечеринках|31 мая 2018|200|300Как разговаривать с девушками на вечеринках
      Дата выхода: 31 мая 2018
    • 965611|Истории призраков|31 мая 2018|200|300Истории призраков
      Дата выхода: 31 мая 2018
    • 1048530|Моя жизнь|31 мая 2018|200|300Моя жизнь
      Дата выхода: 31 мая 2018
    • 1030828|Псы под прикрытием|31 мая 2018|200|300Псы под прикрытием
      Дата выхода: 31 мая 2018
    • 927822|Два хвоста|31 мая 2018|200|300Два хвоста
      Дата выхода: 31 мая 2018
    Вверх