• Игры для PS3
  • Игры для XBOX360
  • Игры для PC
  • Игры для PS2
  • Игры для PSP
  • Для телефонов
  • Музыка
  • Книги/Журналы
  • Обои
  •  
    Опрос
    Откуда Вы о нас узнали?
      0
    • От знакомых2,1,false,300,full
    • Из социальных сетей2,2,false,300,full
    • Из поисковых систем2,3,false,300,full
    • Другое2,4,false,300,full
    Статистика
    Загрузка...
    Сламбер: Лабиринты сна / Slumber | WEB-DLRip-AVC
    Статус  Проверено
    В закладки
    Модератор: Max

    Сламбер: Лабиринты сна / Slumber | WEB-DLRip-AVC [Фильмы 2017] скачать торрентом/torrent бесплатно

    Год выхода
    Категории
    Язык
    Закачал
    Max | 14 февраля в 10ч 19м 04с
    Раздел
    Отзывов
    0
    Раздают: 44 Качают: 2 Скачали: 274 Размер: 744.15 MB
    Инфо о раздаче | Благодарности |
    0/5
    0
    0 5 0
    Поддержи нас — расскажи друзьям!
    Orbitum
    Новый интернет-браузер Быстрее загружает сайты Экономит интернет—трафик Меняет оформление страницы ВК Блокирует всю рекламу на сайтах Загружает торренты как

    µTorrent

    клиент
    Объеденяет все твои чаты из соц. сетей в один Проигрывает твою музыку не заходя во ВКонтакте
    Скачать и многое другое... Подробности на сайте производителя
    Информация о фильме
    Название: Сламбер: Лабиринты сна
    Оригинальное название: Slumber
    Год выхода: 2017
    Жанр:  ужасы
    Режиссер: Джонатан Хопкинс
    В ролях: Мэгги Кью, Хонор Книфси, Сильвестр МакКой, Уилл Кемп, Уильям Хоуп, Сэм Тротон, Марк Престон, Кристен Буш, Лукас Бонд, Линди Пьери

    О фильме :
    Доктор Элис изучает ночные кошмары и поведение людей во сне, сама при этом страдая параноидальными видениями.Она пытается помочь молодой семье избавиться от невероятного ужаса, с которым они сталкиваются каждую ночь. Но в ходе своей работы, Элис приходится отказаться от стандартных методов лечения и осознать, что по ночам в души этой семьи проникает нечто потустороннее.Чтобы спасти людей от этого зла, ей придётся встретиться лицом к лицу со своими собственными страхами, которые преследуют её всю жизнь.



    Страна: Великобритания, США
    Студия: Goldcrest Films International, Tea Shop & Film Company
    Продолжительность: 01:24:16
    Перевод: Дублированный | iTunes

    Файл
    Формат: MKV
    Качество: WEB-DLRip-AVC
    Видео: MPEG-4 AVC, 784x328, ~ 1162 Кбит/с
    Аудио: [img]http://i93.fastpic.ru/big/2017/0727/c0/4b72f0369a3393219ed5935e91fc15c0.gif[/img] AAC-LC, 2 ch, ~ 76 Кбит/с
    Субтитры: Нет

    MI
    Общее
    Уникальный идентификатор : 228360178783401753085407071433371265743 (0xABCC92159FC52D1FB1B159AD8A21AACF)
    Полное имя : D:MOVIESSlumber.2017.ExKinoRay.mkv
    Формат : Matroska
    Версия формата : Version 4 / Version 2
    Размер файла : 744 Мбайт
    Продолжительность : 1 ч. 24 м.
    Общий поток : 1237 Кбит/сек
    Дата кодирования : UTC 2018-02-14 05:56:34
    Программа кодирования : mkvmerge v15.0.0 ("Duel with the Devil") 64-bit
    Библиотека кодирования : libebml v1.3.5 + libmatroska v1.4.5

    Видео
    Идентификатор : 1
    Формат : AVC
    Формат/Информация : Advanced Video Codec
    Профиль формата : High@L4.1
    Параметр CABAC формата : Да
    Параметр RefFrames формата : 10 кадров
    Идентификатор кодека : V_MPEG4/ISO/AVC
    Продолжительность : 1 ч. 24 м.
    Битрейт : 1162 Кбит/сек
    Ширина : 784 пикселя
    Высота : 328 пикселей
    Соотношение сторон : 2,40:1
    Режим частоты кадров : Постоянный
    Частота кадров : 24,000 кадра/сек
    Цветовое пространство : YUV
    Субдискретизация насыщенности : 4:2:0
    Битовая глубина : 8 бит
    Тип развёртки : Прогрессивная
    Бит/(Пиксели*Кадры) : 0.188
    Размер потока : 697 Мбайт (94%)
    Библиотека кодирования : x264 core 152 r2851 ba24899
    Настройки программы : cabac=1 / ref=10 / deblock=1:-3:-3 / analyse=0x3:0x133 / me=umh / subme=11 / psy=1 / psy_rd=1.00:0.12 / mixed_ref=1 / me_range=32 / chroma_me=1 / trellis=2 / 8x8dct=1 / cqm=0 / deadzone=21,11 / fast_pskip=0 / chroma_qp_offset=-3 / threads=6 / lookahead_threads=1 / sliced_threads=0 / nr=0 / decimate=0 / interlaced=0 / bluray_compat=0 / constrained_intra=0 / bframes=10 / b_pyramid=2 / b_adapt=2 / b_bias=0 / direct=3 / weightb=1 / open_gop=0 / weightp=2 / keyint=240 / keyint_min=23 / scenecut=40 / intra_refresh=0 / rc_lookahead=40 / rc=2pass / mbtree=0 / bitrate=1162 / ratetol=1.0 / qcomp=0.60 / qpmin=0 / qpmax=69 / qpstep=4 / cplxblur=20.0 / qblur=0.5 / vbv_maxrate=50000 / vbv_bufsize=62500 / nal_hrd=none / filler=0 / ip_ratio=1.40 / pb_ratio=1.30 / aq=1:1.00
    Default : Да
    Forced : Нет

    Аудио
    Идентификатор : 2
    Формат : AAC
    Формат/Информация : Advanced Audio Codec
    Профиль формата : LC
    Идентификатор кодека : A_AAC
    Продолжительность : 1 ч. 24 м.
    Битрейт : 76,0 Кбит/сек
    Каналы : 2 канала
    Расположение каналов : Front: L R
    Частота : 48,0 КГц
    Частота кадров : 46,875 кадров/сек (1024 SPF)
    Метод сжатия : С потерями
    Задержка видео : 9 мс.
    Размер потока : 45,7 Мбайт (6%)
    Default : Да
    Forced : Нет

    Меню
    00:00:00.000 : en:Глава 1
    00:07:14.083 : en:Глава 2
    00:14:26.458 : en:Глава 3
    00:21:30.083 : en:Глава 4
    00:28:49.458 : en:Глава 5
    00:36:21.999 : en:Глава 6
    00:44:23.082 : en:Глава 7
    00:51:37.123 : en:Глава 8
    00:58:49.956 : en:Глава 9
    01:06:04.122 : en:Глава 10
    01:14:17.080 : en:Глава 11


    Скриншоты
    [img]http://i101.fastpic.ru/big/2018/0214/dc/9c9005fcee63e235d7d6a5d62a799adc.jpg[/img][img]http://i102.fastpic.ru/big/2018/0214/f9/c1ee19460e660cd418094cdc92ca2bf9.jpg[/img][img]http://i99.fastpic.ru/big/2018/0214/b2/9bbb50022dc41993e6ffc1e1126bc1b2.jpg[/img][img]http://i101.fastpic.ru/big/2018/0214/d6/665a213b6647a46bb20b9a6d748215d6.jpg[/img]

    [img]http://i103.fastpic.ru/big/2018/0214/db/a14bfb75de38f5b456a7031d9317d1db.jpg[/img][img]http://i99.fastpic.ru/big/2018/0214/51/c5de56d82dd57962d76dea7377f38951.jpg[/img][img]http://i99.fastpic.ru/big/2018/0214/80/fccf1a2e2a66a35c1629b36874523780.jpg[/img][img]http://i103.fastpic.ru/big/2018/0214/8d/7b645fc017bea76b7ab132148375298d.jpg[/img]
    Еще похожие »

    Как скачать?
    1. Качаем UTorrent версии 2.0 и выше отсюда
    2. После установки, жмем на ссылку Скачать торрент.
    3. Открываем его через utorrent.
    4. Ждем пока подключатся участники.
    5. Качаем.


    Комментарии о Сламбер: Лабиринты сна / Slumber | WEB-DLRip-AVC
    Добавлять комментарии могут только зарегистрированные пользователи

    Зарегистрироваться или Войти


    Ближайшее в кино
    • Привидение дата выхода 26 апреля 2018Привидение
      Дата выхода: 26 апреля 2018
    • 1045590|Правда или действие|26 апреля 2018|200|300Правда или действие
      Дата выхода: 26 апреля 2018
    • 841470|Смешарики. Дежавю|26 апреля 2018|200|300Смешарики. Дежавю
      Дата выхода: 26 апреля 2018
    • 1046545|Танки|26 апреля 2018|200|300Танки
      Дата выхода: 26 апреля 2018
    • 1027311|Дыши во мгле|26 апреля 2018|200|300Дыши во мгле
      Дата выхода: 26 апреля 2018
    • 959260|Миссис Хайд|26 апреля 2018|200|300Миссис Хайд
      Дата выхода: 26 апреля 2018
    • 845128|Я заберу твои деньги|26 апреля 2018|200|300Я заберу твои деньги
      Дата выхода: 26 апреля 2018
    • 1112036|Лицо|26 апреля 2018|200|300Лицо
      Дата выхода: 26 апреля 2018
    • 1076322|Великолепная|26 апреля 2018|200|300Великолепная
      Дата выхода: 26 апреля 2018
    • 1110934|Золушка|28 апреля 2018|200|300Золушка
      Дата выхода: 28 апреля 2018
    • 1115701|МУЛЬТ в кино. Выпуск №74. Планета Май!|28 апреля 2018|200|300МУЛЬТ в кино. Выпуск №74. Планета Май!
      Дата выхода: 28 апреля 2018
    • 928533|Папа-мама гусь|1 мая 2018|200|300Папа-мама гусь
      Дата выхода: 1 мая 2018
    • 843649|Мстители: Война бесконечности|3 мая 2018|200|300Мстители: Война бесконечности
      Дата выхода: 3 мая 2018
    • 939785|Остров собак|3 мая 2018|200|300Остров собак
      Дата выхода: 3 мая 2018
    • 905031|Собибор|3 мая 2018|200|300Собибор
      Дата выхода: 3 мая 2018
    Вверх