• Игры для PS3
  • Игры для XBOX360
  • Игры для PC
  • Игры для PS2
  • Игры для PSP
  • Для телефонов
  • Музыка
  • Книги/Журналы
  • Обои
  •  
    Опрос
    Удобен ли сайт в использовании?
      0
    • Очень удобен, все понятно1,1,false,300,full
    • Удобен1,2,false,300,full
    • Средне1,3,false,300,full
    • Неудобен, трудно ориентироваться1,4,false,300,full
    • Совсем неудобен1,5,false,300,full
    Статистика
    Загрузка...
    Мир, полный чудес / Wonderstruck | WEB-DLRip 720p
    Статус  Проверено
    В закладки
    Модератор: Max

    Мир, полный чудес / Wonderstruck | WEB-DLRip 720p [Фильмы 2017] скачать торрентом/torrent бесплатно

    Год выхода
    Язык
    Закачал
    Аноним | 14 февраля в 13ч 26м 34с
    Раздел
    Отзывов
    0
    Раздают: 18 Качают: 0 Скачали: 24 Размер: 3.54 GB
    Инфо о раздаче | Благодарности |
    0/5
    0
    0 5 0
    Поддержи нас — расскажи друзьям!
    Orbitum
    Новый интернет-браузер Быстрее загружает сайты Экономит интернет—трафик Меняет оформление страницы ВК Блокирует всю рекламу на сайтах Загружает торренты как

    µTorrent

    клиент
    Объеденяет все твои чаты из соц. сетей в один Проигрывает твою музыку не заходя во ВКонтакте
    Скачать и многое другое... Подробности на сайте производителя
    Информация о фильме
    Название: Мир, полный чудес
    Оригинальное название: Wonderstruck
    Год выпуска: 2017
    Жанр:  Драма, детектив, семейный, экранизация
    Режиссер: Тодд Хейнс
    В ролях: Милли Симмондс, Джулианна Мур, Кори Майкл Смит, Джеймс Урбаняк, Дэмиэн Янг, Патрик Мёрни, Лорен Ридлофф, Энтони Натали, Кэрол Аддаббо, Говард Саэго

    О фильме:
    История Бена и Роуз, которые живут в разные эпохи и не могут смириться с окружающим их миром. Бен мечтает найти своего отца, а мысли Роуз заняты загадочной актрисой. Однажды судьба толкает их на поиски того самого недостающего их жизни элемента.


    Страна: США
    Студия: Amazon Studios, Cinetic Media, FilmNation Entertainment
    Продолжительность: 01:55:44
    Перевод: Любительский многоголосый [GreenРай Studio]

    Файл
    Кодек: XviD
    Качество: WEB-DLRip 720
    Видео: 1481 Кбит/с, 1280x536,  23.976 fps
    Звук: Русский (AC3, 2 ch, 384 Кбит/с)



    MediaInfo
    General
    Unique ID                   : 194792834818982399563631092323583285095 (0x928BBC40180A9958B538DBF869F45767)
    Complete name               : E:workWonderstruck.2017.P.WEB-DL.720p.mkv
    Format                      : Matroska
    Format version              : Version 4 / Version 2
    File size                   : 3.54 GiB
    Duration                    : 1 h 56 min
    Overall bit rate mode       : Constant
    Overall bit rate            : 4 361 kb/s
    Encoded date                : UTC 2018-02-13 15:55:23
    Writing application         : mkvmerge v8.3.0 ("Over the Horizon") 64bit
    Writing library             : libebml v1.3.1 + libmatroska v1.4.2

    Video
    ID                          : 1
    Format                      : AVC
    Format/Info                 : Advanced Video Codec
    Format profile              : Main@L3.1
    Format settings             : CABAC / 3 Ref Frames
    Format settings, CABAC      : Yes
    Format settings, ReFrames   : 3 frames
    Format settings, GOP        : M=4, N=15
    Codec ID                    : V_MPEG4/ISO/AVC
    Duration                    : 1 h 56 min
    Bit rate mode               : Constant
    Bit rate                    : 4 000 kb/s
    Width                       : 1 280 pixels
    Height                      : 536 pixels
    Display aspect ratio        : 2.40:1
    Frame rate mode             : Constant
    Frame rate                  : 23.976 (24000/1001) FPS
    Standard                    : NTSC
    Color space                 : YUV
    Chroma subsampling          : 4:2:0
    Bit depth                   : 8 bits
    Scan type                   : Progressive
    Bits/(Pixel*Frame)          : 0.243
    Stream size                 : 3.23 GiB (91%)
    Language                    : English
    Default                     : Yes
    Forced                      : No
    Color range                 : Limited

    Audio
    ID                          : 2
    Format                      : AC-3
    Format/Info                 : Audio Coding 3
    Codec ID                    : A_AC3
    Duration                    : 1 h 56 min
    Bit rate mode               : Constant
    Bit rate                    : 384 kb/s
    Channel(s)                  : 2 channels
    Channel positions           : Front: L R
    Sampling rate               : 48.0 kHz
    Frame rate                  : 31.250 FPS (1536 SPF)
    Bit depth                   : 16 bits
    Compression mode            : Lossy
    Stream size                 : 319 MiB (9%)
    Service kind                : Complete Main
    Default                     : Yes
    Forced                      : No



    Внимание,имеется  видео и аудио реклама от спонсора показа

    Над релизом работали:
    Состав дикторов Анастасия Гайдаржи, Илья Кочетков, Олег Винник
    Руководитель проекта и координатор: Евгений Овчаренко
    Организатор и координатор: Никита Марков
    Пиар менеджер студии: Гриша Чернозатонский
    Техническая поддержка: Александр Методий
    Еще похожие »

    Как скачать?
    1. Качаем UTorrent версии 2.0 и выше отсюда
    2. После установки, жмем на ссылку Скачать торрент.
    3. Открываем его через utorrent.
    4. Ждем пока подключатся участники.
    5. Качаем.


    Комментарии о Мир, полный чудес / Wonderstruck | WEB-DLRip 720p
    Добавлять комментарии могут только зарегистрированные пользователи

    Зарегистрироваться или Войти


    Ближайшее в кино
    • Невидимый гость дата выхода 31 мая 2018Невидимый гость
      Дата выхода: 31 мая 2018
    • 762500|Красный воробей|31 мая 2018|200|300Красный воробей
      Дата выхода: 31 мая 2018
    • 843121|Как разговаривать с девушками на вечеринках|31 мая 2018|200|300Как разговаривать с девушками на вечеринках
      Дата выхода: 31 мая 2018
    • 965611|Истории призраков|31 мая 2018|200|300Истории призраков
      Дата выхода: 31 мая 2018
    • 1048530|Моя жизнь|31 мая 2018|200|300Моя жизнь
      Дата выхода: 31 мая 2018
    • 1030828|Псы под прикрытием|31 мая 2018|200|300Псы под прикрытием
      Дата выхода: 31 мая 2018
    • 927822|Два хвоста|31 мая 2018|200|300Два хвоста
      Дата выхода: 31 мая 2018
    • 1061480|От семьи не убежишь|31 мая 2018|200|300От семьи не убежишь
      Дата выхода: 31 мая 2018
    • 1057083|Сказки о маме|31 мая 2018|200|300Сказки о маме
      Дата выхода: 31 мая 2018
    • 924311|Мир Юрского периода 2|7 июня 2018|200|300Мир Юрского периода 2
      Дата выхода: 7 июня 2018
    • 1074222|Красотка на всю голову|7 июня 2018|200|300Красотка на всю голову
      Дата выхода: 7 июня 2018
    • 1009413|Лето|7 июня 2018|200|300Лето
      Дата выхода: 7 июня 2018
    • 935794|Первые|7 июня 2018|200|300Первые
      Дата выхода: 7 июня 2018
    • 1112132|Реинкарнация|7 июня 2018|200|300Реинкарнация
      Дата выхода: 7 июня 2018
    • 1118194|Решение о ликвидации|7 июня 2018|200|300Решение о ликвидации
      Дата выхода: 7 июня 2018
    Вверх