• Игры для PS4
  • Игры для PS3
  • Игры для XBOX360
  • Игры для PC
  • Игры для PS2
  • Игры для PSP
  • Для телефонов
  • Музыка
  • Книги / Журналы
  • Обои
  • Опрос
    Откуда Вы о нас узнали?
      0
    • От знакомых2,1,false,300,full
    • Из социальных сетей2,2,false,300,full
    • Из поисковых систем2,3,false,300,full
    • Другое2,4,false,300,full
    Статистика
    Всего онлайн -
    Гостей -
    Пользователей -
    Короли трекера
    
    Благодарности () Закрыть
    Информация о фильме
    Название: Эффект воздействия
    Оригинальное название: The Spearhead Effect
    Год выпуска: 2017
    Жанр:  Триллер
    Режиссер: Брэндон Мур, Калеб Смит
    В ролях: Дарлин Фогел, Алекс МакАртур, Тара Браун, Калеб Смит, Джейм Галлахер, Джереми Сайкес, Пол Шакман, Джейкоб Дуайт Рамирес, Дилан Саккоччио

    О фильме:
    После ужасной семейной трагедии Джейк Стетсон пересматривает систему правосудия современного общества, и приходит к выводу, что она не удовлетворяет всех потребностей человека и не в силах обеспечить его полную безопасность. Джейк начинает освещать свои мысли в Интернете, и получает большую поддержку со стороны общества. Но со временем всё выходит из-под контроля.


    Страна: США
    Студия: Maelstrom
    Продолжительность: 01:28:51
    Перевод: Любительский многоголосый [GreenРай Studio]

    Файл
    Кодек: x.264
    Качество: WEB-DLRip 720p
    Видео: 4000 Кбит/с, 1280x544, 23.976 fps
    Звук: Русский (AC3, 2 ch, 384 Кбит/с)



    MediaInfo
    General
    Unique ID                   : 209742096130190925278991547332992134845 (0x9DCADBBD0F37585191E324483DB36EBD)
    Complete name               : E:workThe.Spearhead.Effect.2017.P.WEB-DL.720p.mkv
    Format                      : Matroska
    Format version              : Version 4 / Version 2
    File size                   : 2.66 GiB
    Duration                    : 1 h 28 min
    Overall bit rate mode       : Constant
    Overall bit rate            : 4 315 kb/s
    Encoded date                : UTC 2018-02-13 14:03:54
    Writing application         : mkvmerge v8.3.0 ("Over the Horizon") 64bit
    Writing library             : libebml v1.3.1 + libmatroska v1.4.2

    Video
    ID                          : 1
    Format                      : AVC
    Format/Info                 : Advanced Video Codec
    Format profile              : Main@L3.1
    Format settings             : CABAC / 3 Ref Frames
    Format settings, CABAC      : Yes
    Format settings, ReFrames   : 3 frames
    Format settings, GOP        : M=4, N=15
    Codec ID                    : V_MPEG4/ISO/AVC
    Duration                    : 1 h 28 min
    Bit rate mode               : Constant
    Bit rate                    : 4 000 kb/s
    Width                       : 1 280 pixels
    Height                      : 544 pixels
    Display aspect ratio        : 2.35:1
    Frame rate mode             : Constant
    Frame rate                  : 23.976 (24000/1001) FPS
    Standard                    : NTSC
    Color space                 : YUV
    Chroma subsampling          : 4:2:0
    Bit depth                   : 8 bits
    Scan type                   : Progressive
    Bits/(Pixel*Frame)          : 0.240
    Stream size                 : 2.42 GiB (91%)
    Language                    : English
    Default                     : Yes
    Forced                      : No
    Color range                 : Limited

    Audio
    ID                          : 2
    Format                      : AC-3
    Format/Info                 : Audio Coding 3
    Codec ID                    : A_AC3
    Duration                    : 1 h 28 min
    Bit rate mode               : Constant
    Bit rate                    : 384 kb/s
    Channel(s)                  : 2 channels
    Channel positions           : Front: L R
    Sampling rate               : 48.0 kHz
    Frame rate                  : 31.250 FPS (1536 SPF)
    Bit depth                   : 16 bits
    Compression mode            : Lossy
    Stream size                 : 243 MiB (9%)
    Service kind                : Complete Main
    Default                     : Yes
    Forced                      : No

    Свернуть


    Внимание,имеется  видео и аудио реклама от спонсора показа

    Над релизом работали:
    Состав дикторов Анастасия Гайдаржи, Руслан Чериев, Олег Винник
    Руководитель проекта и координатор: Евгений Овчаренко
    Организатор и координатор: Никита Марков
    Пиар менеджер студии: Гриша Чернозатонский
    Техническая поддержка: Александр Методий
    Похожие раздачи Искать похожие
    Инструкция по скачиванию
     1  Качаем uTorrent версии 2.0 и выше
     2  После установки, жмем выше под постером на ссылку Скачать [MediaGet] или Скачать .torrent
     3  Открываем скачанный файл через соответствующий клиент: MediaGet или uTorrent
     4  Ждем пока подключатся участники
     5  Качаем
    Комментарии о  Эффект воздействия / The Spearhead Effect | WEB-DLRip 720p 
    Ближайшее в кино
    Вверх