• Игры для PS3
  • Игры для XBOX360
  • Игры для PC
  • Игры для PS2
  • Игры для PSP
  • Для телефонов
  • Музыка
  • Книги/Журналы
  • Обои
  •  
    Опрос
    Откуда Вы о нас узнали?
      0
    • От знакомых2,1,false,300,full
    • Из социальных сетей2,2,false,300,full
    • Из поисковых систем2,3,false,300,full
    • Другое2,4,false,300,full
    Статистика
    Загрузка...
    Эффект воздействия / The Spearhead Effect | WEB-DLRip 720p
    Статус  Проверено
    В закладки
    Модератор: Max

    Эффект воздействия / The Spearhead Effect | WEB-DLRip 720p [Фильмы 2017] скачать торрентом/torrent бесплатно

    Год выхода
    Категории
    Язык
    Закачал
    Max | 14 февраля 2018 в 13ч 27м 28с
    Раздел
    Отзывов
    0
    Раздают: 57 Качают: 12 Скачали: 225 Размер: 2.66 GB
    Инфо о раздаче | Благодарности |
    0/5
    0
    Поддержи нас — расскажи друзьям!
    Orbitum
    Новый интернет-браузер Быстрее загружает сайты Экономит интернет—трафик Меняет оформление страницы ВК Блокирует всю рекламу на сайтах Загружает торренты как

    µTorrent

    клиент
    Объеденяет все твои чаты из соц. сетей в один Проигрывает твою музыку не заходя во ВКонтакте
    Скачать и многое другое... Подробности на сайте производителя
    Информация о фильме
    Название: Эффект воздействия
    Оригинальное название: The Spearhead Effect
    Год выпуска: 2017
    Жанр:  Триллер
    Режиссер: Брэндон Мур, Калеб Смит
    В ролях: Дарлин Фогел, Алекс МакАртур, Тара Браун, Калеб Смит, Джейм Галлахер, Джереми Сайкес, Пол Шакман, Джейкоб Дуайт Рамирес, Дилан Саккоччио

    О фильме:
    После ужасной семейной трагедии Джейк Стетсон пересматривает систему правосудия современного общества, и приходит к выводу, что она не удовлетворяет всех потребностей человека и не в силах обеспечить его полную безопасность. Джейк начинает освещать свои мысли в Интернете, и получает большую поддержку со стороны общества. Но со временем всё выходит из-под контроля.


    Страна: США
    Студия: Maelstrom
    Продолжительность: 01:28:51
    Перевод: Любительский многоголосый [GreenРай Studio]

    Файл
    Кодек: x.264
    Качество: WEB-DLRip 720p
    Видео: 4000 Кбит/с, 1280x544, 23.976 fps
    Звук: Русский (AC3, 2 ch, 384 Кбит/с)



    MediaInfo
    General
    Unique ID                   : 209742096130190925278991547332992134845 (0x9DCADBBD0F37585191E324483DB36EBD)
    Complete name               : E:workThe.Spearhead.Effect.2017.P.WEB-DL.720p.mkv
    Format                      : Matroska
    Format version              : Version 4 / Version 2
    File size                   : 2.66 GiB
    Duration                    : 1 h 28 min
    Overall bit rate mode       : Constant
    Overall bit rate            : 4 315 kb/s
    Encoded date                : UTC 2018-02-13 14:03:54
    Writing application         : mkvmerge v8.3.0 ("Over the Horizon") 64bit
    Writing library             : libebml v1.3.1 + libmatroska v1.4.2

    Video
    ID                          : 1
    Format                      : AVC
    Format/Info                 : Advanced Video Codec
    Format profile              : Main@L3.1
    Format settings             : CABAC / 3 Ref Frames
    Format settings, CABAC      : Yes
    Format settings, ReFrames   : 3 frames
    Format settings, GOP        : M=4, N=15
    Codec ID                    : V_MPEG4/ISO/AVC
    Duration                    : 1 h 28 min
    Bit rate mode               : Constant
    Bit rate                    : 4 000 kb/s
    Width                       : 1 280 pixels
    Height                      : 544 pixels
    Display aspect ratio        : 2.35:1
    Frame rate mode             : Constant
    Frame rate                  : 23.976 (24000/1001) FPS
    Standard                    : NTSC
    Color space                 : YUV
    Chroma subsampling          : 4:2:0
    Bit depth                   : 8 bits
    Scan type                   : Progressive
    Bits/(Pixel*Frame)          : 0.240
    Stream size                 : 2.42 GiB (91%)
    Language                    : English
    Default                     : Yes
    Forced                      : No
    Color range                 : Limited

    Audio
    ID                          : 2
    Format                      : AC-3
    Format/Info                 : Audio Coding 3
    Codec ID                    : A_AC3
    Duration                    : 1 h 28 min
    Bit rate mode               : Constant
    Bit rate                    : 384 kb/s
    Channel(s)                  : 2 channels
    Channel positions           : Front: L R
    Sampling rate               : 48.0 kHz
    Frame rate                  : 31.250 FPS (1536 SPF)
    Bit depth                   : 16 bits
    Compression mode            : Lossy
    Stream size                 : 243 MiB (9%)
    Service kind                : Complete Main
    Default                     : Yes
    Forced                      : No



    Внимание,имеется  видео и аудио реклама от спонсора показа

    Над релизом работали:
    Состав дикторов Анастасия Гайдаржи, Руслан Чериев, Олег Винник
    Руководитель проекта и координатор: Евгений Овчаренко
    Организатор и координатор: Никита Марков
    Пиар менеджер студии: Гриша Чернозатонский
    Техническая поддержка: Александр Методий
    Еще похожие »

    Как скачать?
    1. Качаем UTorrent версии 2.0 и выше отсюда
    2. После установки, жмем на ссылку Скачать торрент.
    3. Открываем его через utorrent.
    4. Ждем пока подключатся участники.
    5. Качаем.


    Комментарии о Эффект воздействия / The Spearhead Effect | WEB-DLRip 720p
    Добавлять комментарии могут только зарегистрированные пользователи

    Зарегистрироваться или Войти


    Ближайшее в кино
    • Чёрная Пантера дата выхода 26 февраля 2018Чёрная Пантера
      Дата выхода: 26 февраля 2018
    • Сезанн. Портреты жизни дата выхода 28 февраля 2018Сезанн. Портреты жизни
      Дата выхода: 28 февраля 2018
    • За гранью реальности дата выхода 1 марта 2018За гранью реальности
      Дата выхода: 1 марта 2018
    • Довлатов дата выхода 1 марта 2018Довлатов
      Дата выхода: 1 марта 2018
    • Погружение дата выхода 1 марта 2018Погружение
      Дата выхода: 1 марта 2018
    • Купи меня дата выхода 1 марта 2018Купи меня
      Дата выхода: 1 марта 2018
    • Со дна вершины дата выхода 1 марта 2018Со дна вершины
      Дата выхода: 1 марта 2018
    • Мэри и ведьмин цветок дата выхода 1 марта 2018Мэри и ведьмин цветок
      Дата выхода: 1 марта 2018
    • Дрис ван Нотен дата выхода 1 марта 2018Дрис ван Нотен
      Дата выхода: 1 марта 2018
    • Поднять якоря! дата выхода 1 марта 2018Поднять якоря!
      Дата выхода: 1 марта 2018
    • Излом времени дата выхода 8 марта 2018Излом времени
      Дата выхода: 8 марта 2018
    • Пассажир дата выхода 8 марта 2018Пассажир
      Дата выхода: 8 марта 2018
    • Я худею дата выхода 8 марта 2018Я худею
      Дата выхода: 8 марта 2018
    • Кавалерия дата выхода 8 марта 2018Кавалерия
      Дата выхода: 8 марта 2018
    • Проект Флорида дата выхода 8 марта 2018Проект Флорида
      Дата выхода: 8 марта 2018
    Вверх