• Игры для PS3
  • Игры для XBOX360
  • Игры для PC
  • Игры для PS2
  • Игры для PSP
  • Для телефонов
  • Музыка
  • Книги/Журналы
  • Обои
  •  
    Опрос
    Удобен ли сайт в использовании?
      0
    • Очень удобен, все понятно1,1,false,300,full
    • Удобен1,2,false,300,full
    • Средне1,3,false,300,full
    • Неудобен, трудно ориентироваться1,4,false,300,full
    • Совсем неудобен1,5,false,300,full
    Статистика
    Загрузка...
    Последний портрет / Final Portrait | WEB-DL 1080p
    Статус  Проверено
    В закладки
    Модератор: Max

    Последний портрет / Final Portrait | WEB-DL 1080p [Фильмы 2017] скачать торрентом/torrent бесплатно

    Год выхода
    Категории
    Язык
    Закачал
    Аноним | 14 февраля в 18ч 14м 58с
    Раздел
    Отзывов
    0
    Раздают: 66 Качают: 0 Скачали: 127 Размер: 3.13 GB
    Инфо о раздаче | Благодарности |
    0/5
    0
    0 5 0
    Поддержи нас — расскажи друзьям!
    Orbitum
    Новый интернет-браузер Быстрее загружает сайты Экономит интернет—трафик Меняет оформление страницы ВК Блокирует всю рекламу на сайтах Загружает торренты как

    µTorrent

    клиент
    Объеденяет все твои чаты из соц. сетей в один Проигрывает твою музыку не заходя во ВКонтакте
    Скачать и многое другое... Подробности на сайте производителя
    Информация о фильме
    Название: Последний портрет
    Оригинальное название: Final Portrait
    Год выхода: 2017
    Жанр: Драма, комедия, биография
    Выпущено: Великобритания
    Перевод: Профессиональный многоголосый | iTunes
    Продолжительность: 01:29:51
    Режиссер: Стэнли Туччи
    В ролях: Арми Хаммер, Клеманс Поэзи, Тони Шэлуб, Джеффри Раш, Джеймс Фолкнер, Сильви Тестю, Бегона Ф. Мартин, Керри Шейл, Филипп Сполл, Мартин Мейджер и др.

    О фильме: История о закате жизни одного из виднейших художников ХХ века — Альберто Джакометти. Париж начала 60-х, Альберто Джакометти окружен признанием коллег, интересом любовницы и ревностью жены. Чахнущий над своими доходами и уставший от предсказуемой жизни, художник находит покой в компании Джеймса Лорда — позирующего ему критика. Запланированный портрет не готов и через две недели: двое проводят много времени вместе, обсуждают искусство и работу, дышат свежим воздухом города на Сене.

    [img]http://imdb.snick.ru/ratefor/02/tt4494718.png[/img][img]https://rating.kinopoisk.ru/909799.gif[/img]
    Файл
    Качество: WEB-DL 1080p
    Видео: MPEG-4 AVC, 1920x804, 4606 kbps, 24,000 fps
    Звук: Русский: AC3, 6 ch, 48 kHz, 384 kbps

    MI
    Общее
    Уникальный идентификатор                 : 198800076093584809336488209890881876550 (0x958F807FC357FEE6A9FEA5C9ECB8B246)
    Полное имя                               : E:UttorentПоследний портретПоследний портрет (1080p HD).mkv
    Формат                                   : Matroska
    Версия формата                           : Version 4 / Version 2
    Размер файла                             : 3,13 Гбайт
    Продолжительность                        : 1 ч. 29 м.
    Общий поток                              : 4992 Кбит/сек
    Дата кодирования                         : UTC 2018-02-14 14:01:15
    Программа кодирования                    : mkvmerge v9.5.0 ("Quiet Fire") 64bit
    Библиотека кодирования                   : libebml v1.3.4 + libmatroska v1.4.5

    Видео
    Идентификатор                            : 1
    Формат                                   : AVC
    Формат/Информация                        : Advanced Video Codec
    Профиль формата                          : High@L4
    Настройки формата                        : CABAC / 5 Ref Frames
    Параметр CABAC формата                   : Да
    Параметр RefFrames формата               : 5 кадров
    Идентификатор кодека                     : V_MPEG4/ISO/AVC
    Продолжительность                        : 1 ч. 29 м.
    Битрейт                                  : 4606 Кбит/сек
    Ширина                                   : 1920 пикселей
    Высота                                   : 804 пикселя
    Соотношение сторон                       : 2,40:1
    Режим частоты кадров                     : Постоянный
    Частота кадров                           : 24,000 кадра/сек
    Цветовое пространство                    : YUV
    Субдискретизация насыщенности            : 4:2:0
    Битовая глубина                          : 8 бит
    Тип развёртки                            : Прогрессивная
    Бит/(Пиксели*Кадры)                      : 0.124
    Размер потока                            : 2,89 Гбайт (92%)
    Язык                                     : English
    Default                                  : Да
    Forced                                   : Нет
    Цветовой диапазон                        : Limited
    Основные цвета                           : BT.709
    Характеристики трансфера                 : BT.709
    Коэффициенты матрицы                     : BT.709

    Аудио
    Идентификатор                            : 2
    Формат                                   : AC-3
    Формат/Информация                        : Audio Coding 3
    Параметр Endianness формата              : Big
    Идентификатор кодека                     : A_AC3
    Продолжительность                        : 1 ч. 29 м.
    Вид битрейта                             : Постоянный
    Битрейт                                  : 384 Кбит/сек
    Каналы                                   : 6 каналов
    Расположение каналов                     : Front: L C R, Side: L R, LFE
    Частота                                  : 48,0 КГц
    Частота кадров                           : 31,250 кадров/сек (1536 SPF)
    Битовая глубина                          : 16 бит
    Метод сжатия                             : С потерями
    Размер потока                            : 247 Мбайт (8%)
    Язык                                     : Russian
    Default                                  : Да
    Forced                                   : Нет

    Меню
    00:00:00.000                             : en:Глава 1
    00:07:49.833                             : en:Глава 2
    00:14:33.374                             : en:Глава 3
    00:21:55.832                             : en:Глава 4
    00:27:23.957                             : en:Глава 5
    00:32:46.540                             : en:Глава 6
    00:39:41.290                             : en:Глава 7
    00:45:46.956                             : en:Глава 8
    00:53:43.039                             : en:Глава 9
    01:00:03.539                             : en:Глава 10
    01:06:42.497                             : en:Глава 11
    01:11:57.830                             : en:Глава 12
    01:20:32.705                             : en:Глава 13


    Скриншоты
    [img]http://i101.fastpic.ru/big/2018/0214/96/707beabb408269a8ac1000f8bf80b796.png[/img][img]http://i101.fastpic.ru/big/2018/0214/24/bf089d265fa1215f0537a09e79a4ee24.png[/img][img]http://i103.fastpic.ru/big/2018/0214/03/c7081c88a691d15613ee5c1e9bc57c03.png[/img][img]http://i100.fastpic.ru/big/2018/0214/69/a90751a1253ee0f085049a60a8470f69.png[/img][img]http://i101.fastpic.ru/big/2018/0214/21/ea328213ba32e9e7f2160c4dbf013021.png[/img]
    Еще похожие »

    Как скачать?
    1. Качаем UTorrent версии 2.0 и выше отсюда
    2. После установки, жмем на ссылку Скачать торрент.
    3. Открываем его через utorrent.
    4. Ждем пока подключатся участники.
    5. Качаем.


    Комментарии о Последний портрет / Final Portrait | WEB-DL 1080p
    Добавлять комментарии могут только зарегистрированные пользователи

    Зарегистрироваться или Войти


    Ближайшее в кино
    • Невидимый гость дата выхода 31 мая 2018Невидимый гость
      Дата выхода: 31 мая 2018
    • 762500|Красный воробей|31 мая 2018|200|300Красный воробей
      Дата выхода: 31 мая 2018
    • 843121|Как разговаривать с девушками на вечеринках|31 мая 2018|200|300Как разговаривать с девушками на вечеринках
      Дата выхода: 31 мая 2018
    • 965611|Истории призраков|31 мая 2018|200|300Истории призраков
      Дата выхода: 31 мая 2018
    • 1048530|Моя жизнь|31 мая 2018|200|300Моя жизнь
      Дата выхода: 31 мая 2018
    • 1030828|Псы под прикрытием|31 мая 2018|200|300Псы под прикрытием
      Дата выхода: 31 мая 2018
    • 927822|Два хвоста|31 мая 2018|200|300Два хвоста
      Дата выхода: 31 мая 2018
    • 1061480|От семьи не убежишь|31 мая 2018|200|300От семьи не убежишь
      Дата выхода: 31 мая 2018
    • 1057083|Сказки о маме|31 мая 2018|200|300Сказки о маме
      Дата выхода: 31 мая 2018
    • 924311|Мир Юрского периода 2|7 июня 2018|200|300Мир Юрского периода 2
      Дата выхода: 7 июня 2018
    • 1074222|Красотка на всю голову|7 июня 2018|200|300Красотка на всю голову
      Дата выхода: 7 июня 2018
    • 1009413|Лето|7 июня 2018|200|300Лето
      Дата выхода: 7 июня 2018
    • 935794|Первые|7 июня 2018|200|300Первые
      Дата выхода: 7 июня 2018
    • 1112132|Реинкарнация|7 июня 2018|200|300Реинкарнация
      Дата выхода: 7 июня 2018
    • 1118194|Решение о ликвидации|7 июня 2018|200|300Решение о ликвидации
      Дата выхода: 7 июня 2018
    Вверх