• Игры для PS4
  • Игры для PS3
  • Игры для XBOX360
  • Игры для PC
  • Игры для PS2
  • Игры для PSP
  • Для телефонов
  • Музыка
  • Книги/Журналы
  • Обои
  •  
    Опрос
    Удобен ли сайт в использовании?
      0
    • Очень удобен, все понятно1,1,false,300,full
    • Удобен1,2,false,300,full
    • Средне1,3,false,300,full
    • Неудобен, трудно ориентироваться1,4,false,300,full
    • Совсем неудобен1,5,false,300,full
    Статистика
    Загрузка...
    Она учится в колледже / She's Working Her Way Through College | DVDRip-AVC
    Статус  Проверено
    В закладки
    Модератор: Max

    Она учится в колледже / She's Working Her Way Through College | DVDRip-AVC [Фильмы 1952] скачать торрентом/torrent бесплатно

    Год выхода
    Категории
    Язык
    Закачал
    Max | 14 февраля в 18ч 15м 30с
    Раздел
    Отзывов
    0
    Раздают: 0 Качают: 0 Скачали: 0 Размер: 1.53 GB
    Инфо о раздаче | Благодарности |
    0/5
    0
    0 5 0
    Поддержи нас — расскажи друзьям!
    Orbitum
    Новый интернет-браузер Быстрее загружает сайты Экономит интернет—трафик Меняет оформление страницы ВК Блокирует всю рекламу на сайтах Загружает торренты как

    µTorrent

    клиент
    Объеденяет все твои чаты из соц. сетей в один Проигрывает твою музыку не заходя во ВКонтакте
    Скачать и многое другое... Подробности на сайте производителя
    Информация о фильме
    Название: Она учится в колледже
    Оригинальное название: She"s Working Her Way Through College
    Год выхода: 1952
    Жанр:  комедия, мюзикл
    Режиссер: Х. Брюс Хамберстоун
    В ролях: Вирджиния Майо, Рональд Рейган, Джин Нельсон, Дон ДеФор, Филлис Такстер, Патриция Уаймор, Роланд Уинтерс, Рэймонд Гринлиф, Джинджер Краули, Норман Бартольд

    О фильме:
    Исполнительница экзотических танцев Анджела Гарднер поступает в колледж, желая начать новую жизнь. Её увлечённость помогает вдохнуть новую жизнь в факультет драматических искусств, пока не всплывает наружу её прошлое. Когда кураторы учебного заведения решают исключить Анджелу, на её защиту встаёт старый приятель девушки профессор Джон Палмер...

    Фильм интересен ещё и тем, что в главной мужской роли снялся Рональд Рейган, в будущем - Президент Соединённых Штатов Америки.



    Страна: США
    Студия: Warner Bros. Pictures
    Продолжительность: 1:41:06
    Перевод: Любительский (одноголосый) Виктор Рутилов

    Файл
    Качество: DVDRip-AVC
    Видео: AVC/H.264, 720x544, ~1780 Kbps
    Аудио 1: Русский, AC3, 2 ch, 192 Kbps, 48.0 kHz
    Аудио 2: Английский, AC3, 2 ch, 192 Kbps, 48.0 kHz
    Субтитры: русские

    M/I
    Общее
    Уникальный идентификатор                 : 224659460588795175625561986831045675436 (0xA903D69725085F72B269666B4E70C9AC)
    Полное имя                               : F:DownloadsОна учится в колледже. 1952. NNMCLUB.mkv
    Формат                                   : Matroska
    Версия формата                           : Version 4 / Version 2
    Размер файла                             : 1,53 Гбайт
    Продолжительность                        : 1 ч. 41 м.
    Общий поток                              : 2166 Кбит/сек
    Дата кодирования                         : UTC 2018-02-10 06:32:38
    Программа кодирования                    : mkvmerge v7.9.0 ("Birds") 64bit
    Библиотека кодирования                   : libebml v1.3.1 + libmatroska v1.4.2

    Видео
    Идентификатор                            : 1
    Формат                                   : AVC
    Формат/Информация                        : Advanced Video Codec
    Профиль формата                          : High@L4.1
    Настройки формата                        : CABAC / 12 Ref Frames
    Параметр CABAC формата                   : Да
    Параметр RefFrames формата               : 12 кадров
    Идентификатор кодека                     : V_MPEG4/ISO/AVC
    Продолжительность                        : 1 ч. 41 м.
    Битрейт                                  : 1780 Кбит/сек
    Ширина                                   : 720 пикселей
    Высота                                   : 544 пикселя
    Соотношение сторон                       : 4:3
    Режим частоты кадров                     : Постоянный
    Частота кадров                           : 23,976 (24000/1001) кадра/сек
    Цветовое пространство                    : YUV
    Субдискретизация насыщенности            : 4:2:0
    Битовая глубина                          : 8 бит
    Тип развёртки                            : Прогрессивная
    Бит/(Пиксели*Кадры)                      : 0.190
    Размер потока                            : 1,26 Гбайт (82%)
    Заголовок                                : She"s Working Her Way Through College
    Библиотека кодирования                   : x264 core 146 r2538 121396c
    Настройки программы                      : cabac=1 / ref=12 / deblock=1:-1:-1 / analyse=0x3:0x113 / me=umh / subme=10 / psy=1 / psy_rd=1.00:0.10 / mixed_ref=1 / me_range=32 / chroma_me=1 / trellis=2 / 8x8dct=1 / cqm=0 / deadzone=21,11 / fast_pskip=0 / chroma_qp_offset=-3 / threads=6 / lookahead_threads=1 / sliced_threads=0 / nr=0 / decimate=0 / interlaced=0 / bluray_compat=0 / constrained_intra=0 / bframes=7 / b_pyramid=2 / b_adapt=2 / b_bias=0 / direct=3 / weightb=1 / open_gop=0 / weightp=2 / keyint=250 / keyint_min=25 / scenecut=40 / intra_refresh=0 / rc_lookahead=60 / rc=2pass / mbtree=1 / bitrate=1780 / ratetol=1.0 / qcomp=0.60 / qpmin=0 / qpmax=69 / qpstep=4 / cplxblur=20.0 / qblur=0.5 / vbv_maxrate=14000 / vbv_bufsize=14000 / nal_hrd=none / filler=0 / ip_ratio=1.40 / aq=1:1.00
    Язык                                     : English
    Default                                  : Да
    Forced                                   : Нет

    Аудио #1
    Идентификатор                            : 2
    Формат                                   : AC-3
    Формат/Информация                        : Audio Coding 3
    Идентификатор кодека                     : A_AC3
    Продолжительность                        : 1 ч. 41 м.
    Вид битрейта                             : Постоянный
    Битрейт                                  : 192 Кбит/сек
    Каналы                                   : 2 канала
    Расположение каналов                     : Front: L R
    Частота                                  : 48,0 КГц
    Частота кадров                           : 31,250 кадров/сек (1536 SPF)
    Битовая глубина                          : 16 бит
    Метод сжатия                             : С потерями
    Размер потока                            : 139 Мбайт (9%)
    Заголовок                                : Одноголосый закадровый, В. Рутилов
    Язык                                     : Russian
    ServiceKind                      : Complete Main
    Default                                  : Да
    Forced                                   : Нет

    Аудио #2
    Идентификатор                            : 3
    Формат                                   : AC-3
    Формат/Информация                        : Audio Coding 3
    Идентификатор кодека                     : A_AC3
    Продолжительность                        : 1 ч. 41 м.
    Вид битрейта                             : Постоянный
    Битрейт                                  : 192 Кбит/сек
    Каналы                                   : 2 канала
    Расположение каналов                     : Front: L R
    Частота                                  : 48,0 КГц
    Частота кадров                           : 31,250 кадров/сек (1536 SPF)
    Битовая глубина                          : 16 бит
    Метод сжатия                             : С потерями
    Размер потока                            : 139 Мбайт (9%)
    Заголовок                                : Оригинал
    Язык                                     : English
    ServiceKind                      : Complete Main
    Default                                  : Нет
    Forced                                   : Нет

    Текст
    Идентификатор                            : 4
    Формат                                   : UTF-8
    Идентификатор кодека                     : S_TEXT/UTF8
    Идентификатор кодека/Информация          : UTF-8 Plain Text
    Продолжительность                        : 1 ч. 40 м.
    Битрейт                                  : 136 бит/сек
    ElementCount                             : 1399
    Размер потока                            : 101 Кбайт (0%)
    Заголовок                                : SRT
    Язык                                     : Russian
    Default                                  : Нет
    Forced                                   : Нет


    Скриншоты
    [img]http://i3.imageban.ru/out/2018/02/14/d1498fec6b330422d826f1b79c738430.png[/img][img]http://i3.imageban.ru/out/2018/02/14/23ab3d1ced36dbef208e5d3ba137e33d.png[/img][img]http://i6.imageban.ru/out/2018/02/14/f48e03216e6764e54b1c6a302f989d5f.png[/img][img]http://i4.imageban.ru/out/2018/02/14/632bfbfc5ea40c2abf0eb37900e3cc74.png[/img]
    Еще похожие »

    Как скачать?
    1. Качаем UTorrent версии 2.0 и выше отсюда
    2. После установки, жмем на ссылку Скачать торрент.
    3. Открываем его через utorrent.
    4. Ждем пока подключатся участники.
    5. Качаем.


    Комментарии о Она учится в колледже / She's Working Her Way Through College | DVDRip-AVC
    Добавлять комментарии могут только зарегистрированные пользователи

    Зарегистрироваться или Войти


    Ближайшее в кино
    • МУЛЬТ в кино. Выпуск №79. Как в сказке! дата выхода 18 августа 2018МУЛЬТ в кино. Выпуск №79. Как в сказке!
      Дата выхода: 18 августа 2018
    • 1007425|Днюха!|23 августа 2018|200|300Днюха!
      Дата выхода: 23 августа 2018
    • 921938|22 мили|23 августа 2018|200|30022 мили
      Дата выхода: 23 августа 2018
    • 934956|Альфа|23 августа 2018|200|300Альфа
      Дата выхода: 23 августа 2018
    • 1023331|Отель «Артемида»|23 августа 2018|200|300Отель «Артемида»
      Дата выхода: 23 августа 2018
    • 1008748|Не волнуйся, он далеко не уйдёт|23 августа 2018|200|300Не волнуйся, он далеко не уйдёт
      Дата выхода: 23 августа 2018
    • 1008240|Последний беспредел|23 августа 2018|200|300Последний беспредел
      Дата выхода: 23 августа 2018
    • 789159|Шоу Мистико|23 августа 2018|200|300Шоу Мистико
      Дата выхода: 23 августа 2018
    • 986638|Принцесса и дракон|23 августа 2018|200|300Принцесса и дракон
      Дата выхода: 23 августа 2018
    • 675470|Голубая игуана|23 августа 2018|200|300Голубая игуана
      Дата выхода: 23 августа 2018
    • 1108921|Вилли и крутые тачки|23 августа 2018|200|300Вилли и крутые тачки
      Дата выхода: 23 августа 2018
    • 380|2001 год: Космическая одиссея|30 августа 2018|200|3002001 год: Космическая одиссея
      Дата выхода: 30 августа 2018
    • 1048294|Как женить холостяка|30 августа 2018|200|300Как женить холостяка
      Дата выхода: 30 августа 2018
    • 1114917|Гоголь. Страшная месть|30 августа 2018|200|300Гоголь. Страшная месть
      Дата выхода: 30 августа 2018
    • 939770|Выжившие|30 августа 2018|200|300Выжившие
      Дата выхода: 30 августа 2018
    Вверх