• Игры для PS3
  • Игры для XBOX360
  • Игры для PC
  • Игры для PS2
  • Игры для PSP
  • Для телефонов
  • Музыка
  • Книги/Журналы
  • Обои
  •  
    Опрос
    Откуда Вы о нас узнали?
      0
    • От знакомых2,1,false,300,full
    • Из социальных сетей2,2,false,300,full
    • Из поисковых систем2,3,false,300,full
    • Другое2,4,false,300,full
    Статистика
    Загрузка...
    Боруто: Фильм Наруто / Boruto: Naruto the Movie | HDRip 720p
    Статус  Проверено
    В закладки
    Модератор: Max

    Боруто: Фильм Наруто / Boruto: Naruto the Movie | HDRip 720p [Фильмы 2015] скачать торрентом/torrent бесплатно

    Год выхода
    Язык
    Закачал
    Max | 14 февраля 2018 в 19ч 57м 41с
    Раздел
    Отзывов
    0
    Раздают: 6 Качают: 2 Скачали: 26 Размер: 3.69 GB
    Инфо о раздаче | Благодарности |
    0/5
    0
    Поддержи нас — расскажи друзьям!
    Orbitum
    Новый интернет-браузер Быстрее загружает сайты Экономит интернет—трафик Меняет оформление страницы ВК Блокирует всю рекламу на сайтах Загружает торренты как

    µTorrent

    клиент
    Объеденяет все твои чаты из соц. сетей в один Проигрывает твою музыку не заходя во ВКонтакте
    Скачать и многое другое... Подробности на сайте производителя
    Информация о фильме
    Название: Боруто: Фильм Наруто
    Оригинальное название: Boruto: Naruto the Movie
    Год выхода: 2015
    Жанр: приключения, фэнтези
    Режиссер: Ямасита Хироюки
    В ролях: Юко Санпэи, Кокоро Кикути, Рюити Кидзима, Дзюнко Такэути, Тиэ Накамура, Нориаки Сугияма, Саори Хаями, Нана Мидзуки, Кэнсё Оно, Сётаро Морикубо

    О фильме:
    Боруто - сын седьмого хокаге Наруто, который не признаёт своего отца. Зато он сильно желает превзойти Наруто, которого все считают героем. Он решает встретиться с другом отца - Саске - и попросить взять его в ученики?! С этого и начинается история нового поколения, написанная Масаси Кисимото!



    Страна: Япония
    Продолжительность: 01:35:33
    Перевод: Дубляж (любительский, многоголосый) | Flarrow Films

    Файл
    Формат: MKV
    Кодек: MPEG-4 AVC
    Качество: HDRip 720p
    Видео: 1280х688, 5 025 kb/s, 23.976 FPS
    Звук: AAC, 512 kb/s, 48 KHz, 2 channels
    Субтитры: отсутствуют
    Сэмпл: Скачать

    MediaInfo

    Video
    ID                          : 1
    Format                      : AVC
    Format/Info                 : Advanced Video Codec
    Format profile              : High@L4.1
    Format settings             : CABAC / 5 Ref Frames
    Format settings, CABAC      : Yes
    Format settings, RefFrames  : 5 frames
    Codec ID                    : V_MPEG4/ISO/AVC
    Duration                    : 1 h 35 min
    Bit rate                    : 5 025 kb/s
    Width                       : 1 280 pixels
    Height                      : 688 pixels
    Display aspect ratio        : 1.85:1
    Frame rate mode             : Constant
    Frame rate                  : 23.976 (24000/1001) FPS
    Color space                 : YUV
    Chroma subsampling          : 4:2:0
    Bit depth                   : 8 bits
    Scan type                   : Progressive
    Bits/(Pixel*Frame)          : 0.238
    Stream size                 : 3.35 GiB (91%)
    Writing library             : x264 core 152 r2851kMod ba24899
    Encoding settings           : cabac=1 / ref=5 / deblock=1:0:0 / analyse=0x3:0x133 / me=umh / subme=8 / psy=1 / fade_compensate=0.00 / psy_rd=1.00:0.00 / mixed_ref=1 / me_range=16 / chroma_me=1 / trellis=1 / 8x8dct=1 / cqm=0 / deadzone=21,11 / fast_pskip=0 / chroma_qp_offset=-2 / threads=18 / lookahead_threads=3 / sliced_threads=0 / nr=0 / decimate=1 / interlaced=0 / bluray_compat=0 / constrained_intra=0 / bframes=3 / b_pyramid=2 / b_adapt=1 / b_bias=0 / direct=1 / weightb=1 / open_gop=0 / weightp=2 / keyint=250 / keyint_min=23 / scenecut=40 / intra_refresh=0 / rc_lookahead=40 / rc=2pass / mbtree=1 / bitrate=5025 / ratetol=1.0 / qcomp=0.60 / qpmin=0 / qpmax=69 / qpstep=4 / cplxblur=20.0 / qblur=0.5 / ip_ratio=1.40 / aq=1:1.00
    Language                    : English
    Default                     : Yes
    Forced                      : No

    Audio
    ID                          : 2
    Format                      : AAC
    Format/Info                 : Advanced Audio Codec
    Format profile              : LC
    Codec ID                    : A_AAC-2
    Duration                    : 1 h 35 min
    Bit rate                    : 512 kb/s
    Channel(s)                  : 2 channels
    Channel positions           : Front: L R
    Sampling rate               : 48.0 kHz
    Frame rate                  : 46.875 FPS (1024 SPF)
    Compression mode            : Lossy
    Stream size                 : 349 MiB (9%)
    Language                    : English
    Default                     : Yes
    Forced                      : No




    Роли дублировали: Lunar Arrow, Семён Евсиков, Dreamy Sleep, Игорь Шлыков, Molly, Макс Фривинг, Lelik_time, Nogoodvoice, Игорь Хрусталёв, ElisaL, Bzeke, Алексей Воленко, Алла Алёхина, Дмитрий Рыбин, Ban, Shira Senpai, Malevich, Stacy, Владимир Веретёнов, Александр Байсаров, Chirick, Daniel, Дмитрий Савкин

    [img]http://d.radikal.ru/d33/1802/bf/30527bfba9cd.png[/img]
    Еще похожие »

    Как скачать?
    1. Качаем UTorrent версии 2.0 и выше отсюда
    2. После установки, жмем на ссылку Скачать торрент.
    3. Открываем его через utorrent.
    4. Ждем пока подключатся участники.
    5. Качаем.


    Комментарии о Боруто: Фильм Наруто / Boruto: Naruto the Movie | HDRip 720p
    Добавлять комментарии могут только зарегистрированные пользователи

    Зарегистрироваться или Войти


    Ближайшее в кино
    • Чёрная Пантера дата выхода 26 февраля 2018Чёрная Пантера
      Дата выхода: 26 февраля 2018
    • Сезанн. Портреты жизни дата выхода 28 февраля 2018Сезанн. Портреты жизни
      Дата выхода: 28 февраля 2018
    • За гранью реальности дата выхода 1 марта 2018За гранью реальности
      Дата выхода: 1 марта 2018
    • Довлатов дата выхода 1 марта 2018Довлатов
      Дата выхода: 1 марта 2018
    • Погружение дата выхода 1 марта 2018Погружение
      Дата выхода: 1 марта 2018
    • Купи меня дата выхода 1 марта 2018Купи меня
      Дата выхода: 1 марта 2018
    • Со дна вершины дата выхода 1 марта 2018Со дна вершины
      Дата выхода: 1 марта 2018
    • Мэри и ведьмин цветок дата выхода 1 марта 2018Мэри и ведьмин цветок
      Дата выхода: 1 марта 2018
    • Дрис ван Нотен дата выхода 1 марта 2018Дрис ван Нотен
      Дата выхода: 1 марта 2018
    • Поднять якоря! дата выхода 1 марта 2018Поднять якоря!
      Дата выхода: 1 марта 2018
    • Излом времени дата выхода 8 марта 2018Излом времени
      Дата выхода: 8 марта 2018
    • Пассажир дата выхода 8 марта 2018Пассажир
      Дата выхода: 8 марта 2018
    • Я худею дата выхода 8 марта 2018Я худею
      Дата выхода: 8 марта 2018
    • Кавалерия дата выхода 8 марта 2018Кавалерия
      Дата выхода: 8 марта 2018
    • Проект Флорида дата выхода 8 марта 2018Проект Флорида
      Дата выхода: 8 марта 2018
    Вверх