• Игры для PS3
  • Игры для XBOX360
  • Игры для PC
  • Игры для PS2
  • Игры для PSP
  • Для телефонов
  • Музыка
  • Книги/Журналы
  • Обои
  •  
    Опрос
    Удобен ли сайт в использовании?
      0
    • Очень удобен, все понятно1,1,false,300,full
    • Удобен1,2,false,300,full
    • Средне1,3,false,300,full
    • Неудобен, трудно ориентироваться1,4,false,300,full
    • Совсем неудобен1,5,false,300,full
    Статистика
    Загрузка...
    Призрачная нить / Phantom Thread | DVDScr-AVC
    Статус  Проверено
    В закладки
    Модератор: Max

    Призрачная нить / Phantom Thread | DVDScr-AVC [Фильмы 2017] скачать торрентом/torrent бесплатно

    Год выхода
    Категории
    Язык
    Закачал
    Аноним | 14 февраля в 23ч 46м 07с
    Раздел
    Отзывов
    0
    Раздают: 13 Качают: 0 Скачали: 2368 Размер: 1.31 GB
    Инфо о раздаче | Благодарности |
    0/5
    0
    0 5 0
    Поддержи нас — расскажи друзьям!
    Orbitum
    Новый интернет-браузер Быстрее загружает сайты Экономит интернет—трафик Меняет оформление страницы ВК Блокирует всю рекламу на сайтах Загружает торренты как

    µTorrent

    клиент
    Объеденяет все твои чаты из соц. сетей в один Проигрывает твою музыку не заходя во ВКонтакте
    Скачать и многое другое... Подробности на сайте производителя
    Информация о фильме
    Название: Призрачная нить
    Оригинальное название: Phantom Thread
    Год выхода: 2017
    Жанр: драма, мелодрама
    Режиссер: Пол Томас Андерсон
    В ролях: Дэниэл Дэй-Льюис, Лесли Мэнвилл, Камилла Разерфорд, Вики Крипс, Бернард Коллако, Ричард Грэхэм, Джейн Перри, Пип Филлипс, Ингрид Шрэм

    О фильме:
    События разворачиваются в послевоенном Лондоне 1950-х годов. Известный кутюрье Рейнольдс Вудкок и его сестра Сирил являются ключевыми фигурами британской моды. Они одевают королевскую семью, звезд киноиндустрии, богатых наследников, светских львиц и многих других. Нескончаемым потоком женщины приходили и уходили в жизни Вудкока, принося вдохновение убежденному холостяку. Но однажды Рейнольдс сталкивается с одной молодой и решительной девушкой Альмой, которая становится неотъемлемой частью его жизни – его музой и любовницей. Настоящая любовь в корне меняет жизнь Рейнольдса.

    [img]http://imdb.snick.ru/ratefor/02/tt5776858.png[/img][img]http://rating.kinopoisk.ru/991628.gif[/img]

    Страна: США
    Студия: Annapurna Pictures, Focus Features, Ghoulardi Film Company, Perfect World Pictures
    Продолжительность: 02:10:07
    Перевод: СУБТИТРЫ

    Файл
    Кодек: H.264
    Качество: DVDScr-AVC
    Видео: 720x384 (1.875), 23.976 fps ~ 1250 Kbps
    Звук: AC3, 48 KHz, 2 ch ~ 192 Kb/s (английский)
    Субтитры: русские отдельно (Focs), английские отдельно

    СЭМПЛ

    MI

    Общее
    Уникальный идентификатор : 287585913318838057898267446326329065630 (0xD85B083E8D5A62843275B70181BBC09E)
    Полное имя : Q:TorFPhantom.Thread.2017.DVDSCRPhantom.Thread.2017.DVDSCR.mkv
    Формат : Matroska
    Версия формата : Version 2
    Размер файла : 1,31 Гбайт
    Продолжительность : 2 ч. 10 м.
    Режим общего битрейта : Переменный
    Общий поток : 1445 Кбит/сек
    Дата кодирования : UTC 2018-02-07 18:57:51
    Программа кодирования : mkvmerge v19.0.0 ("Brave Captain") 64-bit
    Библиотека кодирования : libebml v1.3.5 + libmatroska v1.4.8
    DURATION : 02:10:07.392000000
    NUMBER_OF_FRAMES : 243981
    NUMBER_OF_BYTES : 187377408
    _STATISTICS_WRITING_APP : mkvmerge v19.0.0 ("Brave Captain") 64-bit
    _STATISTICS_WRITING_DATE_UTC : 2018-02-07 18:57:51
    _STATISTICS_TAGS : BPS DURATION NUMBER_OF_FRAMES NUMBER_OF_BYTES

    Видео
    Идентификатор : 1
    Формат : AVC
    Формат/Информация : Advanced Video Codec
    Профиль формата : High@L4.1
    Параметр CABAC формата : Да
    Параметр ReFrames формата : 3 кадра
    Идентификатор кодека : V_MPEG4/ISO/AVC
    Продолжительность : 2 ч. 10 м.
    Вид битрейта : Переменный
    Битрейт : 1250 Кбит/сек
    Максимальный битрейт : 40,0 Мбит/сек
    Ширина : 720 пикселей
    Высота : 384 пикселя
    Соотношение сторон : 1,875
    Частота кадров : 23,976 кадра/сек
    Цветовое пространство : YUV
    Субдискретизация насыщенности : 4:2:0
    Битовая глубина : 8 бит
    Тип развёртки : Прогрессивная
    Бит/(Пиксели*Кадры) : 0.189
    Размер потока : 1,11 Гбайт (85%)
    Библиотека кодирования : x264 core 152 r2851 ba24899
    Настройки программы : cabac=1 / ref=4 / deblock=1:-1:-1 / analyse=0x3:0x133 / me=umh / subme=10 / psy=1 / psy_rd=1.00:0.15 / mixed_ref=1 / me_range=24 / chroma_me=1 / trellis=2 / 8x8dct=1 / cqm=0 / deadzone=21,11 / fast_pskip=1 / chroma_qp_offset=-3 / threads=12 / lookahead_threads=1 / sliced_threads=0 / slices=4 / nr=0 / decimate=1 / interlaced=0 / bluray_compat=0 / constrained_intra=0 / bframes=3 / b_pyramid=1 / b_adapt=2 / b_bias=0 / direct=3 / weightb=1 / open_gop=0 / weightp=0 / keyint=23 / keyint_min=1 / scenecut=40 / intra_refresh=0 / rc_lookahead=23 / rc=2pass / mbtree=1 / bitrate=1250 / ratetol=1.0 / qcomp=0.60 / qpmin=10 / qpmax=51 / qpstep=4 / cplxblur=20.0 / qblur=0.5 / vbv_maxrate=40000 / vbv_bufsize=30000 / nal_hrd=vbr / filler=0 / ip_ratio=1.40 / aq=1:1.00
    Default : Да
    Forced : Нет
    Основные цвета : BT.709-5, BT.1361, IEC 61966-2-4, SMPTE RP177
    Характеристики трансфера : BT.709-5, BT.1361
    Коэффициенты матрицы : BT.709-5, BT.1361, IEC 61966-2-4 709, SMPTE RP177

    Аудио
    Идентификатор : 2
    Формат : AC-3
    Формат/Информация : Audio Coding 3
    Расширение режима : CM (complete main)
    Идентификатор кодека : A_AC3
    Продолжительность : 2 ч. 10 м.
    Вид битрейта : Постоянный
    Битрейт : 192 Кбит/сек
    Каналы : 2 канала
    Расположение каналов : Front: L R
    Частота : 48,0 КГц
    Битовая глубина : 16 бит
    Метод сжатия : С потерями
    Размер потока : 179 Мбайт (13%)
    Default : Да
    Forced : Нет


    Скриншоты
    [img]http://i102.fastpic.ru/big/2018/0214/68/cdfbb53b1dd9cfc143eecad8a3616e68.jpg[/img][img]http://i101.fastpic.ru/big/2018/0214/2a/38068bae5b80907e2930d4f50c8e432a.jpg[/img][img]http://i102.fastpic.ru/big/2018/0214/89/4ba40bbbff02047a8baf47c6add9aa89.jpg[/img][img]http://i101.fastpic.ru/big/2018/0214/4d/4ad3f64149df1a0a92f8ce67e714794d.jpg[/img][img]http://i102.fastpic.ru/big/2018/0214/1b/41d1e86e07be20830fc6597eece25d1b.jpg[/img][img]http://i101.fastpic.ru/big/2018/0214/c5/883436949bd220159e85ffd3f1c93cc5.jpg[/img][img]http://i102.fastpic.ru/big/2018/0214/d7/a802246cb97735d541dc50e272fa0ad7.jpg[/img]
    Еще похожие »

    Как скачать?
    1. Качаем UTorrent версии 2.0 и выше отсюда
    2. После установки, жмем на ссылку Скачать торрент.
    3. Открываем его через utorrent.
    4. Ждем пока подключатся участники.
    5. Качаем.


    Комментарии о Призрачная нить / Phantom Thread | DVDScr-AVC
    Добавлять комментарии могут только зарегистрированные пользователи

    Зарегистрироваться или Войти


    Ближайшее в кино
    • Невидимый гость дата выхода 31 мая 2018Невидимый гость
      Дата выхода: 31 мая 2018
    • 762500|Красный воробей|31 мая 2018|200|300Красный воробей
      Дата выхода: 31 мая 2018
    • 843121|Как разговаривать с девушками на вечеринках|31 мая 2018|200|300Как разговаривать с девушками на вечеринках
      Дата выхода: 31 мая 2018
    • 965611|Истории призраков|31 мая 2018|200|300Истории призраков
      Дата выхода: 31 мая 2018
    • 1048530|Моя жизнь|31 мая 2018|200|300Моя жизнь
      Дата выхода: 31 мая 2018
    • 1030828|Псы под прикрытием|31 мая 2018|200|300Псы под прикрытием
      Дата выхода: 31 мая 2018
    • 927822|Два хвоста|31 мая 2018|200|300Два хвоста
      Дата выхода: 31 мая 2018
    • 1061480|От семьи не убежишь|31 мая 2018|200|300От семьи не убежишь
      Дата выхода: 31 мая 2018
    • 1057083|Сказки о маме|31 мая 2018|200|300Сказки о маме
      Дата выхода: 31 мая 2018
    • 924311|Мир Юрского периода 2|7 июня 2018|200|300Мир Юрского периода 2
      Дата выхода: 7 июня 2018
    • 1074222|Красотка на всю голову|7 июня 2018|200|300Красотка на всю голову
      Дата выхода: 7 июня 2018
    • 1009413|Лето|7 июня 2018|200|300Лето
      Дата выхода: 7 июня 2018
    • 935794|Первые|7 июня 2018|200|300Первые
      Дата выхода: 7 июня 2018
    • 1112132|Реинкарнация|7 июня 2018|200|300Реинкарнация
      Дата выхода: 7 июня 2018
    • 1118194|Решение о ликвидации|7 июня 2018|200|300Решение о ликвидации
      Дата выхода: 7 июня 2018
    Вверх