• Игры для PS4
  • Игры для PS3
  • Игры для XBOX360
  • Игры для PC
  • Игры для PS2
  • Игры для PSP
  • Для телефонов
  • Музыка
  • Книги/Журналы
  • Обои
  •  
    Опрос
    Удобен ли сайт в использовании?
      0
    • Очень удобен, все понятно1,1,false,300,full
    • Удобен1,2,false,300,full
    • Средне1,3,false,300,full
    • Неудобен, трудно ориентироваться1,4,false,300,full
    • Совсем неудобен1,5,false,300,full
    Статистика
    Загрузка...
    Форма воды / The Shape of Water | BDRip 1080p
    Статус  Проверено
    В закладки
    Модератор: Max

    Форма воды / The Shape of Water | BDRip 1080p [Фильмы 2017] скачать торрентом/torrent бесплатно

    Год выхода
    Язык
    Закачал
    Max | 06 марта в 23ч 23м 40с
    Раздел
    Отзывов
    0
    Раздают: 58 Качают: 7 Скачали: 352 Размер: 12.42 GB
    Инфо о раздаче | Благодарности |
    0/5
    0
    0 5 0
    Поддержи нас — расскажи друзьям!
    Orbitum
    Новый интернет-браузер Быстрее загружает сайты Экономит интернет—трафик Меняет оформление страницы ВК Блокирует всю рекламу на сайтах Загружает торренты как

    µTorrent

    клиент
    Объеденяет все твои чаты из соц. сетей в один Проигрывает твою музыку не заходя во ВКонтакте
    Скачать и многое другое... Подробности на сайте производителя
    Информация о фильме
    Название: Форма воды
    Оригинальное название: The Shape of Water
    Год выхода: 2017
    Жанр: Фэнтези, драма, приключения
    Режиссер: Гильермо Дель Торо
    В ролях: Салли Хокинс, Майкл Шеннон, Ричард Дженкинс, Октавия Спенсер, Майкл Стулбарг, Даг Джонс, Дэвид Хьюлетт, Ник Сирси, Стюарт Арнотт, Найджел Беннетт



    О фильме:
    Действие разворачивается в 1963 году. Главная героиня — немая уборщица в научной лаборатории. В стенах секретного учреждения идёт работа по изучению отловленного человека-амфибии. Женщина влюбляется в мутанта и помогает ему бежать…

    Страна: Канада, США
    Студия: Fox Searchlight Pictures
    Продолжительность: 02:03:19
    Перевод: Дублированный | iTunes

    Качество: BDRip 1080p
    Видео: MPEG-4 AVC, 1920x1036, 12.3 Mbit/s, 23.976 fps
    Звук:
    Аудио #01: 48 kHz, AC3, 5.1, 384 Kbps | Дублированный | iTunes | RUS |[img]http://lostpix.com/img/2016-04/26/ecarul7mj2gcrjkf30af8u4tk.gif[/img]
    Аудио #02: 48 kHz, AC3, 2.0, 224 Kbps | Дублированный | iTunes | UKR |[img]http://lostpix.com/img/2018-03/05/qgxa0cbvre3myaxlzw8pevmq3.gif[/img]
    Аудио #03: 48 kHz, DTS, 5.1, 1510 Kbps | Оригинал |  ENG |[img]http://lostpix.com/img/2016-09/30/0icucyo5gq0qmwlibabcgmhiw.gif[/img]
    Субтитры: Русские (forced, full), украинские (forced, full), английские

    [img]http://lostpix.com/img/2018-03/06/3pyxbgry2l8c4j2kszw3sfb7v.png[/img][img]http://lostpix.com/img/2018-03/06/juclr4d8r29xiwpusn5jym9ke.png[/img][img]http://lostpix.com/img/2018-03/06/er1ymfjz9cmhu3g4vb0dz6cfn.png[/img][img]http://lostpix.com/img/2018-03/06/lvhwele6b3hc8fejnzbtsxur1.png[/img][img]http://lostpix.com/img/2018-03/06/wqhqnpogvgpon2i4ukruvt75a.png[/img]

    MI
    General
    Unique ID                   : 313056130533680849995759010221221908290 (0xEB846AE848DAB751605580F8731E8F42)
    Complete name               : C:Video111The.Shape.of.Water.2017.BDRip.1080p.ExKinoRay.mkv
    Format                      : Matroska
    Format version              : Version 4 / Version 2
    File size                   : 12.4 GiB
    Duration                    : 2 h 3 min
    Overall bit rate            : 14.4 Mb/s
    Movie name                  : The Shape of Water 2017 from ExKinoRay
    Encoded date                : UTC 2018-03-06 19:39:16
    Writing application         : mkvmerge v21.0.0 ("Tardigrades Will Inherit The Earth") 64-bit
    Writing library             : libebml v1.3.5 + libmatroska v1.4.8

    Video
    ID                          : 1
    Format                      : AVC
    Format/Info                 : Advanced Video Codec
    Format profile              : High@L4.1
    Format settings             : CABAC / 4 Ref Frames
    Format settings, CABAC      : Yes
    Format settings, ReFrames   : 4 frames
    Codec ID                    : V_MPEG4/ISO/AVC
    Duration                    : 2 h 3 min
    Bit rate                    : 12.3 Mb/s
    Width                       : 1 920 pixels
    Height                      : 1 036 pixels
    Display aspect ratio        : 1.85:1
    Frame rate mode             : Constant
    Frame rate                  : 23.976 (24000/1001) FPS
    Color space                 : YUV
    Chroma subsampling          : 4:2:0
    Bit depth                   : 8 bits
    Scan type                   : Progressive
    Bits/(Pixel*Frame)          : 0.258
    Stream size                 : 10.6 GiB (85%)
    Writing library             : x264 core 148 r2705 3f5ed56
    Encoding settings           : cabac=1 / ref=4 / deblock=1:-2:-2 / analyse=0x3:0x133 / me=umh / subme=11 / psy=1 / psy_rd=1.05:0.05 / mixed_ref=1 / me_range=48 / chroma_me=1 / trellis=2 / 8x8dct=1 / cqm=0 / deadzone=21,11 / fast_pskip=0 / chroma_qp_offset=-3 / threads=16 / lookahead_threads=4 / sliced_threads=0 / nr=0 / decimate=0 / interlaced=0 / bluray_compat=0 / constrained_intra=0 / bframes=8 / b_pyramid=2 / b_adapt=2 / b_bias=0 / direct=3 / weightb=1 / open_gop=0 / weightp=2 / keyint=240 / keyint_min=23 / scenecut=40 / intra_refresh=0 / rc_lookahead=50 / rc=2pass / mbtree=0 / bitrate=12300 / ratetol=1.0 / qcomp=0.60 / qpmin=0 / qpmax=69 / qpstep=4 / cplxblur=20.0 / qblur=0.5 / vbv_maxrate=50000 / vbv_bufsize=62500 / nal_hrd=none / filler=0 / ip_ratio=1.40 / pb_ratio=1.30 / aq=3:0.80
    Language                    : English
    Default                     : Yes
    Forced                      : No

    Audio #1
    ID                          : 2
    Format                      : AC-3
    Format/Info                 : Audio Coding 3
    Codec ID                    : A_AC3
    Duration                    : 2 h 3 min
    Bit rate mode               : Constant
    Bit rate                    : 384 kb/s
    Channel(s)                  : 6 channels
    Channel positions           : Front: L C R, Side: L R, LFE
    Sampling rate               : 48.0 kHz
    Frame rate                  : 31.250 FPS (1536 SPF)
    Bit depth                   : 16 bits
    Compression mode            : Lossy
    Stream size                 : 339 MiB (3%)
    Title                       : iTunes
    Language                    : Russian
    Service kind                : Complete Main
    Default                     : Yes
    Forced                      : No

    Audio #2
    ID                          : 3
    Format                      : AC-3
    Format/Info                 : Audio Coding 3
    Codec ID                    : A_AC3
    Duration                    : 2 h 3 min
    Bit rate mode               : Constant
    Bit rate                    : 224 kb/s
    Channel(s)                  : 2 channels
    Channel positions           : Front: L R
    Sampling rate               : 48.0 kHz
    Frame rate                  : 31.250 FPS (1536 SPF)
    Bit depth                   : 16 bits
    Compression mode            : Lossy
    Stream size                 : 198 MiB (2%)
    Title                       : iTunes
    Language                    : Ukrainian
    Service kind                : Complete Main
    Default                     : No
    Forced                      : No

    Audio #3
    ID                          : 4
    Format                      : DTS
    Format/Info                 : Digital Theater Systems
    Codec ID                    : A_DTS
    Duration                    : 2 h 3 min
    Bit rate mode               : Constant
    Bit rate                    : 1 509 kb/s
    Channel(s)                  : 6 channels
    Channel positions           : Front: L C R, Side: L R, LFE
    Sampling rate               : 48.0 kHz
    Frame rate                  : 93.750 FPS (512 SPF)
    Bit depth                   : 24 bits
    Compression mode            : Lossy
    Stream size                 : 1.30 GiB (10%)
    Title                       : Original
    Language                    : English
    Default                     : No
    Forced                      : No

    Text #1
    ID                          : 5
    Format                      : UTF-8
    Codec ID                    : S_TEXT/UTF8
    Codec ID/Info               : UTF-8 Plain Text
    Duration                    : 1 h 58 min
    Bit rate                    : 1 b/s
    Count of elements           : 61
    Stream size                 : 1.38 KiB (0%)
    Title                       : forced
    Language                    : Russian
    Default                     : Yes
    Forced                      : No

    Text #2
    ID                          : 6
    Format                      : UTF-8
    Codec ID                    : S_TEXT/UTF8
    Codec ID/Info               : UTF-8 Plain Text
    Duration                    : 2 h 1 min
    Bit rate                    : 69 b/s
    Count of elements           : 1264
    Stream size                 : 61.8 KiB (0%)
    Title                       : full
    Language                    : Russian
    Default                     : No
    Forced                      : No

    Text #3
    ID                          : 7
    Format                      : UTF-8
    Codec ID                    : S_TEXT/UTF8
    Codec ID/Info               : UTF-8 Plain Text
    Duration                    : 1 h 47 min
    Bit rate                    : 5 b/s
    Count of elements           : 167
    Stream size                 : 4.49 KiB (0%)
    Title                       : forced
    Language                    : Ukrainian
    Default                     : No
    Forced                      : No

    Text #4
    ID                          : 8
    Format                      : UTF-8
    Codec ID                    : S_TEXT/UTF8
    Codec ID/Info               : UTF-8 Plain Text
    Duration                    : 2 h 1 min
    Bit rate                    : 71 b/s
    Count of elements           : 1398
    Stream size                 : 64.1 KiB (0%)
    Title                       : full
    Language                    : Ukrainian
    Default                     : No
    Forced                      : No

    Text #5
    ID                          : 9
    Format                      : UTF-8
    Codec ID                    : S_TEXT/UTF8
    Codec ID/Info               : UTF-8 Plain Text
    Duration                    : 1 h 57 min
    Bit rate                    : 67 b/s
    Count of elements           : 1016
    Stream size                 : 58.2 KiB (0%)
    Title                       : Full v.2
    Language                    : Russian
    Default                     : No
    Forced                      : No

    Text #6
    ID                          : 10
    Format                      : UTF-8
    Codec ID                    : S_TEXT/UTF8
    Codec ID/Info               : UTF-8 Plain Text
    Duration                    : 1 h 47 min
    Bit rate                    : 3 b/s
    Count of elements           : 169
    Stream size                 : 2.51 KiB (0%)
    Title                       : Forced
    Language                    : English
    Default                     : No
    Forced                      : No

    Text #7
    ID                          : 11
    Format                      : UTF-8
    Codec ID                    : S_TEXT/UTF8
    Codec ID/Info               : UTF-8 Plain Text
    Duration                    : 1 h 56 min
    Bit rate                    : 43 b/s
    Count of elements           : 1307
    Stream size                 : 36.8 KiB (0%)
    Title                       : Full
    Language                    : English
    Default                     : No
    Forced                      : No

    Text #8
    ID                          : 12
    Format                      : UTF-8
    Codec ID                    : S_TEXT/UTF8
    Codec ID/Info               : UTF-8 Plain Text
    Duration                    : 2 h 2 min
    Bit rate                    : 56 b/s
    Count of elements           : 1925
    Stream size                 : 51.3 KiB (0%)
    Title                       : SDH
    Language                    : English
    Default                     : No
    Forced                      : No

    Menu
    00:00:00.000                : en:00:00:00.000
    00:06:24.467                : en:00:06:24.467
    00:12:54.774                : en:00:12:54.774
    00:18:32.987                : en:00:18:32.987
    00:23:45.591                : en:00:23:45.591
    00:29:39.653                : en:00:29:39.653
    00:35:29.836                : en:00:35:29.836
    00:39:30.535                : en:00:39:30.535
    00:42:42.435                : en:00:42:42.435
    00:48:34.036                : en:00:48:34.036
    00:52:26.935                : en:00:52:26.935
    00:57:30.197                : en:00:57:30.197
    01:01:52.542                : en:01:01:52.542
    01:07:35.551                : en:01:07:35.551
    01:12:13.496                : en:01:12:13.496
    01:17:50.791                : en:01:17:50.791
    01:21:17.122                : en:01:21:17.122
    01:26:05.911                : en:01:26:05.911
    01:32:48.480                : en:01:32:48.480
    01:37:18.750                : en:01:37:18.750
    01:43:24.115                : en:01:43:24.115
    01:46:06.610                : en:01:46:06.610
    01:50:31.667                : en:01:50:31.667
    01:58:34.858                : en:01:58:34.858


    Подпишись на меня, кликни по картинке > : [img]http://i069.radikal.ru/1712/fb/cc798e05d06e.gif[/img]

    [img]http://lostpix.com/img/2017-03/22/pa3kns75lpl0e564ik1il8ow9.gif[/img]
    Еще похожие »

    Как скачать?
    1. Качаем UTorrent версии 2.0 и выше отсюда
    2. После установки, жмем на ссылку Скачать торрент.
    3. Открываем его через utorrent.
    4. Ждем пока подключатся участники.
    5. Качаем.


    Комментарии о Форма воды / The Shape of Water | BDRip 1080p
    Добавлять комментарии могут только зарегистрированные пользователи

    Зарегистрироваться или Войти


    Ближайшее в кино
    • МУЛЬТ в кино. Выпуск №77. Команда мечты дата выхода 23 июня 2018МУЛЬТ в кино. Выпуск №77. Команда мечты
      Дата выхода: 23 июня 2018
    • 1162775|Кто украл Banksy|25 июня 2018|200|300Кто украл Banksy
      Дата выхода: 25 июня 2018
    • 1031219|План побега 2|28 июня 2018|200|300План побега 2
      Дата выхода: 28 июня 2018
    • 938461|Убийца 2. Против всех|28 июня 2018|200|300Убийца 2. Против всех
      Дата выхода: 28 июня 2018
    • 912012|Распрекрасный принц|28 июня 2018|200|300Распрекрасный принц
      Дата выхода: 28 июня 2018
    • 1015040|Во власти стихии|28 июня 2018|200|300Во власти стихии
      Дата выхода: 28 июня 2018
    • 759874|Ты водишь!|28 июня 2018|200|300Ты водишь!
      Дата выхода: 28 июня 2018
    • 1077873|Книжный клуб|28 июня 2018|200|300Книжный клуб
      Дата выхода: 28 июня 2018
    • 1047708|Инсомния|28 июня 2018|200|300Инсомния
      Дата выхода: 28 июня 2018
    • 1026748|Джим Пуговка и машинист Лукас|28 июня 2018|200|300Джим Пуговка и машинист Лукас
      Дата выхода: 28 июня 2018
    • 1038941|Осторожно: Грамп!|28 июня 2018|200|300Осторожно: Грамп!
      Дата выхода: 28 июня 2018
    • 977767|50 весенних дней|28 июня 2018|200|30050 весенних дней
      Дата выхода: 28 июня 2018
    • 1162806|Идеальный муж|4 июля 2018|200|300Идеальный муж
      Дата выхода: 4 июля 2018
    • 935940|Человек-муравей и Оса|5 июля 2018|200|300Человек-муравей и Оса
      Дата выхода: 5 июля 2018
    • 977435|Невидимка|5 июля 2018|200|300Невидимка
      Дата выхода: 5 июля 2018
    Вверх