• Игры для PS4
  • Игры для PS3
  • Игры для XBOX360
  • Игры для PC
  • Игры для PS2
  • Игры для PSP
  • Для телефонов
  • Музыка
  • Книги / Журналы
  • Обои
  • Опрос
    Удобен ли сайт в использовании?
      0
    • Очень удобен, все понятно1,1,false,300,full
    • Удобен1,2,false,300,full
    • Средне1,3,false,300,full
    • Неудобен, трудно ориентироваться1,4,false,300,full
    • Совсем неудобен1,5,false,300,full
    Статистика
    Всего онлайн -
    Гостей -
    Пользователей -
    Короли трекера
    Благодарности () Закрыть
    Информация о фильме
    Название: Солдат
    Оригинальное название: Soldier
    Год выхода: 1998
    Жанр: фантастика, боевик, драма
    Режиссер: Пол У. С. Андерсон
    В ролях: Курт Расселл, Джейсон Скотт Ли, Джейсон Айзекс, Конни Нильсен, Шон Пертуи, Джаред Торн, Тейлор Торн, Марк Бринглсон, Гэри Бьюзи, К.К. Доддс

    О фильме: Солдат забирают в армию чуть ли не с пелёнок. Ребёнок попадает в школу военных, где без родителей и всяких скидок на детство из отобранного человеческого материала готовят профессиональных солдат. Одним из таких солдат становится Тодд. До 40 с лишним лет провоевал он, став лучшим в своем отряде. Когда на его космический корабль прислали новичков, которые во всех отношениях должны превосходить ветеранов во главе с полковником, выпускником Вест-Пойнта, последний стравил трёх ветеранов с новым бойцом. Старики проиграли. Их выбросили на свалку далёкой планеты Аркадии, но Тодд выжил. Его выходили местные поселенцы, чей корабль много лет назад совершил на этой планете вынужденную посадку. Тодд остался жить среди них. В его душе были не только страх и дисциплина, как сказал он милой красивой женщине, выходившей его, но и доброта. Когда полковник высадил на планете новых солдат, чтобы испытать их в операции по уничтожению жителей колонии, Тодд доказал, что опыт в сочетании с человеческим фактором стоят гораздо больше, чем генетическая избранность и крепкие мускулы.

    [img]http://i89.fastpic.ru/big/2017/0502/69/67d521d70873d2399dac9e7d05d0b369.png[/img]

    Страна: США, Великобритания
    Продолжительность: 01:38:36
    Перевод: Профессиональный (многоголосый, закадровый) "Варус видео"
    Субтитры: Нет

    Файл
    Кодек: XviD
    Качество: HDRip
    Видео: 720x304 (2.37:1), 23.976 fps, XviD build 73 ~1784 kbps avg, 0.34 bit/pixel
    Звук: 48 kHz, AC3 Dolby Digital, 2/0 (L,R) ch, ~192 kbps

    MediaInfo
    General
    Complete name               : Soldier.1998.HDRip.ot.Portablius.avi
    Format                      : AVI
    Format/Info                 : Audio Video Interleave
    File size                   : 1.37 GiB
    Duration                    : 1 h 38 min
    Overall bit rate            : 1 986 kb/s
    Writing application         : VirtualDubMod 1.5.10.3 | www.virtualdub-fr.org || (build 2550/release)
    Writing library             : VirtualDubMod build 2550/release

    Video
    ID                          : 0
    Format                      : MPEG-4 Visual
    Format profile              : Advanced Simple@L5
    Format settings, BVOP       : 1
    Format settings, QPel       : No
    Format settings, GMC        : No warppoints
    Format settings, Matrix     : Custom
    Codec ID                    : XVID
    Codec ID/Hint               : XviD
    Duration                    : 1 h 38 min
    Bit rate                    : 1 784 kb/s
    Width                       : 720 pixels
    Height                      : 304 pixels
    Display aspect ratio        : 2.35:1
    Frame rate                  : 23.976 (24000/1001) FPS
    Original frame rate         : 23.976 (23976/1000) FPS
    Color space                 : YUV
    Chroma subsampling          : 4:2:0
    Bit depth                   : 8 bits
    Scan type                   : Progressive
    Compression mode            : Lossy
    Bits/(Pixel*Frame)          : 0.340
    Stream size                 : 1.23 GiB (90%)
    Writing library             : XviD 73

    Audio
    ID                          : 1
    Format                      : AC-3
    Format/Info                 : Audio Coding 3
    Format settings, Endianness : Big
    Codec ID                    : 2000
    Duration                    : 1 h 38 min
    Bit rate mode               : Constant
    Bit rate                    : 192 kb/s
    Channel(s)                  : 2 channels
    Channel positions           : Front: L R
    Sampling rate               : 48.0 kHz
    Frame rate                  : 31.250 FPS (1536 spf)
    Bit depth                   : 16 bits
    Compression mode            : Lossy
    Stream size                 : 135 MiB (10%)
    Alignment                   : Split accross interleaves
    Interleave, duration        : 42  ms (1.00 video frame)
    Interleave, preload duratio : 500  ms
    Service kind                : Complete Main

    Свернуть


    Скриншоты
    [screen]http://i4.imageban.ru/out/2018/03/13/1991674d85e034bd719602073e7a335d.png[/screen][screen]http://i4.imageban.ru/out/2018/03/13/7a25377824957478536345e683822bcc.png[/screen][screen]http://i3.imageban.ru/out/2018/03/13/10805af770577a394c51aed0498d2dee.png[/screen][screen]http://i1.imageban.ru/out/2018/03/13/6cf014a82bd02dd5d5a1e7a0062cf6b7.png[/screen][screen]http://i6.imageban.ru/out/2018/03/13/a95e8f0c124bbe50416361341ccbe508.png[/screen][screen]http://i1.imageban.ru/out/2018/03/13/9ef766fa09849a43e70d74e9b55cede5.png[/screen]Свернуть
    Похожие раздачи Искать похожие
    Инструкция по скачиванию
     1  Качаем uTorrent версии 2.0 и выше
     2  После установки, жмем выше под постером на ссылку Скачать [MediaGet] или Скачать .torrent
     3  Открываем скачанный файл через соответствующий клиент: MediaGet или uTorrent
     4  Ждем пока подключатся участники
     5  Качаем
    Комментарии о  Солдат / Soldier | HDRip 
    Ближайшее в кино
    Вверх