• Игры для PS4
  • Игры для PS3
  • Игры для XBOX360
  • Игры для PC
  • Игры для PS2
  • Игры для PSP
  • Для телефонов
  • Музыка
  • Книги/Журналы
  • Обои
  •  
    Опрос
    Удобен ли сайт в использовании?
      0
    • Очень удобен, все понятно1,1,false,300,full
    • Удобен1,2,false,300,full
    • Средне1,3,false,300,full
    • Неудобен, трудно ориентироваться1,4,false,300,full
    • Совсем неудобен1,5,false,300,full
    Статистика
    Загрузка...
    NieR Music Concert
    Статус  Проверено
    В закладки
    Модератор: Max

    NieR Music Concert [Музыка 2017] скачать торрентом/torrent бесплатно

    Год выхода
    Закачал
    Аноним | 03 апреля в 16ч 19м 45с
    Раздел
    Отзывов
    0
    Раздают: 2 Качают: 0 Скачали: 2 Размер: 5.69 GB
    Инфо о раздаче | Благодарности |
    0/5
    0
    0 5 0
    Поддержи нас — расскажи друзьям!
    Orbitum
    Новый интернет-браузер Быстрее загружает сайты Экономит интернет—трафик Меняет оформление страницы ВК Блокирует всю рекламу на сайтах Загружает торренты как

    µTorrent

    клиент
    Объеденяет все твои чаты из соц. сетей в один Проигрывает твою музыку не заходя во ВКонтакте
    Скачать и многое другое... Подробности на сайте производителя
    Название:NieR Music Concert: The Memories of Puppets
    Год выпуска: 2017
    Жанр: OST, концерт
    Композитор: Keiichi Okabe

    О концерте:
    Японский разработчик и издатель компьютерных игр Square Enix выпустит запись концерта музыки NieR: Memories of the puppets. Музыкальные концерты проводились в Токио и Осака в 2017 году.

    Трек-лист

    1 - City Ruins
    2 - Amusement Park
    3 - Memories of Dust
    4 - Voice Drama Scene 1: September 5th
    5 - Peaceful Sleep
    6 - A Beautiful Song
    7 - Vague Hope
    8 - Voice Drama Scene 2: September 14th
    9 - Song of the Ancients - Atonement
    10 - Pascal
    11 - The Sound of the End
    12 - Voice Drama Scene 3: September 17th
    13 - Alien Manifestation
    14 - The Tower
    15 - Bipolar Nightmare
    16 - Mourning
    17 - Voice Drama Scene 4: September 19th
    18 - Weight of the World
    19 - Kaine
    20 - Ashes of Dreams
    21 - Weight of the World / the End of YoRHa.


    Страна: Япония
    Студия: MONACA, Square Enix Music
    Перевод: Не требуется
    Качество: HDRip 1080
    Видео: H.264, 6500 Кбит/сек, 1920x1080, 23,976 (24000/1001) кадра/сек, 0.131 Бит/(Пиксели*Кадры)
    Аудио: AAC, 192 Кбит/сек, 2 канала

    MediaInfo

    Формат                                   : MPEG-4
    Профиль формата                          : Base Media
    Размер файла                             : 5,69 Гбайт
    Продолжительность                        : 2 ч. 2 м.
    Общий поток                              : 6652 Кбит/сек
    Программа кодирования                    : Lavf55.28.101

    Видео
    Формат                                   : AVC
    Формат/Информация                        : Advanced Video Codec
    Профиль формата                          : High@L4
    Настройки формата                        : CABAC / 4 Ref Frames
    Параметр CABAC формата                   : Да
    Параметр RefFrames формата               : 4 кадра
    Идентификатор кодека                     : avc1
    Идентификатор кодека/Информация          : Advanced Video Coding
    Продолжительность                        : 2 ч. 2 м.
    Битрейт                                  : 6500 Кбит/сек
    Ширина                                   : 1920 пикселей
    Высота                                   : 1080 пикселей
    Соотношение сторон                       : 16:9
    Режим частоты кадров                     : Постоянный
    Частота кадров                           : 23,976 (24000/1001) кадра/сек
    Цветовое пространство                    : YUV
    Субдискретизация насыщенности            : 4:2:0
    Битовая глубина                          : 8 бит
    Тип развёртки                            : Прогрессивная
    Бит/(Пиксели*Кадры)                      : 0.131
    Размер потока                            : 5,52 Гбайт (97%)

    Аудио
    Идентификатор                            : 2
    Формат                                   : AAC
    Формат/Информация                        : Advanced Audio Codec
    Профиль формата                          : LC
    Идентификатор кодека                     : mp4a-40-2
    Продолжительность                        : 2 ч. 2 м.
    Вид битрейта                             : Постоянный
    Битрейт                                  : 192 Кбит/сек
    Каналы                                   : 2 канала
    Расположение каналов                     : Front: L R
    Частота                                  : 44,1 КГц
    Частота кадров                           : 43,066 кадра/сек (1024 SPF)
    Метод сжатия                             : С потерями
    Размер потока                            : 168 Мбайт (3%)
    Язык                                     : Japanese



    Еще похожие »

    Как скачать?
    1. Качаем UTorrent версии 2.0 и выше отсюда
    2. После установки, жмем на ссылку Скачать торрент.
    3. Открываем его через utorrent.
    4. Ждем пока подключатся участники.
    5. Качаем.


    Комментарии о NieR Music Concert
    Добавлять комментарии могут только зарегистрированные пользователи

    Зарегистрироваться или Войти


    Ближайшее в кино
    • Клуб миллиардеров дата выхода 19 июля 2018Клуб миллиардеров
      Дата выхода: 19 июля 2018
    • 848004|Паранормальное|19 июля 2018|200|300Паранормальное
      Дата выхода: 19 июля 2018
    • 993589|Килиманджара|19 июля 2018|200|300Килиманджара
      Дата выхода: 19 июля 2018
    • 1002560|Зои|19 июля 2018|200|300Зои
      Дата выхода: 19 июля 2018
    • 1025011|Офисный беспредел|19 июля 2018|200|300Офисный беспредел
      Дата выхода: 19 июля 2018
    • 1024435|Это чертово сердце|19 июля 2018|200|300Это чертово сердце
      Дата выхода: 19 июля 2018
    • 1169286|МУЛЬТ в кино. Выпуск №78. Наше лето!|21 июля 2018|200|300МУЛЬТ в кино. Выпуск №78. Наше лето!
      Дата выхода: 21 июля 2018
    • 926540|Миссия невыполнима: Последствия|26 июля 2018|200|300Миссия невыполнима: Последствия
      Дата выхода: 26 июля 2018
    • 992614|Обитатели|26 июля 2018|200|300Обитатели
      Дата выхода: 26 июля 2018
    • 854458|Белль и Себастьян: Приключения продолжаются|26 июля 2018|200|300Белль и Себастьян: Приключения продолжаются
      Дата выхода: 26 июля 2018
    • 1049478|Убежище дьявола|26 июля 2018|200|300Убежище дьявола
      Дата выхода: 26 июля 2018
    • 1008732|Мектуб, моя любовь|26 июля 2018|200|300Мектуб, моя любовь
      Дата выхода: 26 июля 2018
    • 1049447|Юные титаны, вперед!|26 июля 2018|200|300Юные титаны, вперед!
      Дата выхода: 26 июля 2018
    • 1067608|Свидетели|26 июля 2018|200|300Свидетели
      Дата выхода: 26 июля 2018
    • 933307|Опасная игра Слоун|2 августа 2018|200|300Опасная игра Слоун
      Дата выхода: 2 августа 2018
    Вверх