• Игры для PS4
  • Игры для PS3
  • Игры для XBOX360
  • Игры для PC
  • Игры для PS2
  • Игры для PSP
  • Для телефонов
  • Музыка
  • Книги / Журналы
  • Обои
  • Опрос
    Удобен ли сайт в использовании?
      0
    • Очень удобен, все понятно1,1,false,300,full
    • Удобен1,2,false,300,full
    • Средне1,3,false,300,full
    • Неудобен, трудно ориентироваться1,4,false,300,full
    • Совсем неудобен1,5,false,300,full
    Статистика
    Всего онлайн -
    Гостей -
    Пользователей -
    Короли трекера
    Благодарности () Закрыть
    Название:NieR Music Concert: The Memories of Puppets
    Год выпуска: 2017
    Жанр: OST, концерт
    Композитор: Keiichi Okabe

    О концерте:
    Японский разработчик и издатель компьютерных игр Square Enix выпустит запись концерта музыки NieR: Memories of the puppets. Музыкальные концерты проводились в Токио и Осака в 2017 году.

    Трек-лист

    1 - City Ruins
    2 - Amusement Park
    3 - Memories of Dust
    4 - Voice Drama Scene 1: September 5th
    5 - Peaceful Sleep
    6 - A Beautiful Song
    7 - Vague Hope
    8 - Voice Drama Scene 2: September 14th
    9 - Song of the Ancients - Atonement
    10 - Pascal
    11 - The Sound of the End
    12 - Voice Drama Scene 3: September 17th
    13 - Alien Manifestation
    14 - The Tower
    15 - Bipolar Nightmare
    16 - Mourning
    17 - Voice Drama Scene 4: September 19th
    18 - Weight of the World
    19 - Kaine
    20 - Ashes of Dreams
    21 - Weight of the World / the End of YoRHa.
    Свернуть


    Страна: Япония
    Студия: MONACA, Square Enix Music
    Перевод: Не требуется
    Качество: HDRip 1080
    Видео: H.264, 6500 Кбит/сек, 1920x1080, 23,976 (24000/1001) кадра/сек, 0.131 Бит/(Пиксели*Кадры)
    Аудио: AAC, 192 Кбит/сек, 2 канала

    MediaInfo

    Формат                                   : MPEG-4
    Профиль формата                          : Base Media
    Размер файла                             : 5,69 Гбайт
    Продолжительность                        : 2 ч. 2 м.
    Общий поток                              : 6652 Кбит/сек
    Программа кодирования                    : Lavf55.28.101

    Видео
    Формат                                   : AVC
    Формат/Информация                        : Advanced Video Codec
    Профиль формата                          : High@L4
    Настройки формата                        : CABAC / 4 Ref Frames
    Параметр CABAC формата                   : Да
    Параметр RefFrames формата               : 4 кадра
    Идентификатор кодека                     : avc1
    Идентификатор кодека/Информация          : Advanced Video Coding
    Продолжительность                        : 2 ч. 2 м.
    Битрейт                                  : 6500 Кбит/сек
    Ширина                                   : 1920 пикселей
    Высота                                   : 1080 пикселей
    Соотношение сторон                       : 16:9
    Режим частоты кадров                     : Постоянный
    Частота кадров                           : 23,976 (24000/1001) кадра/сек
    Цветовое пространство                    : YUV
    Субдискретизация насыщенности            : 4:2:0
    Битовая глубина                          : 8 бит
    Тип развёртки                            : Прогрессивная
    Бит/(Пиксели*Кадры)                      : 0.131
    Размер потока                            : 5,52 Гбайт (97%)

    Аудио
    Идентификатор                            : 2
    Формат                                   : AAC
    Формат/Информация                        : Advanced Audio Codec
    Профиль формата                          : LC
    Идентификатор кодека                     : mp4a-40-2
    Продолжительность                        : 2 ч. 2 м.
    Вид битрейта                             : Постоянный
    Битрейт                                  : 192 Кбит/сек
    Каналы                                   : 2 канала
    Расположение каналов                     : Front: L R
    Частота                                  : 44,1 КГц
    Частота кадров                           : 43,066 кадра/сек (1024 SPF)
    Метод сжатия                             : С потерями
    Размер потока                            : 168 Мбайт (3%)
    Язык                                     : Japanese

    Свернуть


    Похожие раздачи Искать похожие
    Инструкция по скачиванию
     1  Качаем uTorrent версии 2.0 и выше
     2  После установки, жмем выше под постером на ссылку Скачать [MediaGet] или Скачать .torrent
     3  Открываем скачанный файл через соответствующий клиент: MediaGet или uTorrent
     4  Ждем пока подключатся участники
     5  Качаем
    Комментарии о  NieR Music Concert 
    Ближайшее в кино
    Вверх