• Игры для PS4
  • Игры для PS3
  • Игры для XBOX360
  • Игры для PC
  • Игры для PS2
  • Игры для PSP
  • Для телефонов
  • Музыка
  • Книги / Журналы
  • Обои
  • Опрос
    Откуда Вы о нас узнали?
      0
    • От знакомых2,1,false,300,full
    • Из социальных сетей2,2,false,300,full
    • Из поисковых систем2,3,false,300,full
    • Другое2,4,false,300,full
    Статистика
    Всего онлайн -
    Гостей -
    Пользователей -
    Короли трекера
    
    Благодарности () Закрыть
    Быстрее загружает сайты Экономит интернет—трафик Меняет оформление страницы ВК Блокирует всю рекламу на сайтах Загружает торренты как µTorrent клиент Объеденяет все твои чаты из соц. сетей в один Проигрывает твою музыку не заходя во ВКонтакте
    Новый интернет-браузер
    Оrbitum
    Скачать
    и многое другое... Подробности на сайте производителя
    Название: По ту сторону закона
    Оригинальное название: Dead Heat
    Год выпуска: 2002
    Выпущено: Канада, Германия, Cinerenta Medienbeteiligungs KG, Lions Gate Films, Cinelaw
    Жанр:  Боевик, комедия, драма, криминал
    Режиссер: Марк Мэлоун
    В ролях: Крэйг Верони, Майкл Беняер, Рада Митчелл, Дэниэл Бензали, Кей Панабэйкер, Чарльз Мартин Смит, Кифер Сазерленд, Энтони ЛаПалья, Лотер Блюто, Денис Арндт

    О фильме:
    Медицинская комиссия вынуждает крутого бостонского полицейского уйти на пенсию. Разочаровавшийся в жизни и близкий к самоубийству, он принимает предложение своего брата, сулящее выгодную сделку и легкие барыши. Однако неожиданно для себя братья переходят дорогу боссу местной мафии, и с этого момента деньги в их жизни отступают на второй план. Гораздо важнее теперь другое - просто остаться в живых.

    Продолжительность: 01:37:46
    Перевод: Профессиональный двухголосый
    Субтитры: Русские, английские
    Навигация по главам: Есть

    Файл
    Качество: WEB-DL 1080p
    Видео: MPEG-4 AVC, 14,2 Мбит/сек, 1920x1080, 23,976 кадра/сек
    Аудио #1: AC3, 6 ch, 384 Кбит/сек | Русский, профессиональный (двухголосый закадровый)
    Аудио #2: EAC3, 2 ch, 224 Кбит/сек | Английский, оригинал



    Скриншоты
    [screen]http://img12.lostpic.net/2018/04/14/de6edfa47e220b0841a9f54ae2683997.png[/screen][screen]http://img12.lostpic.net/2018/04/14/694eb43bda403004d88884c15b7f2422.png[/screen][screen]http://img12.lostpic.net/2018/04/14/5188c2abc0f1e046fcee22a9c53d4cdd.png[/screen][screen]http://img12.lostpic.net/2018/04/14/8c01950e4e4f1aef8b3339fc7bce5e75.png[/screen][screen]http://img12.lostpic.net/2018/04/14/0a85a262527f92520096567083986db0.png[/screen][screen]http://img12.lostpic.net/2018/04/14/e8e2c4210b275e9aa7939d81a4721391.png[/screen][screen]http://img12.lostpic.net/2018/04/14/2331f870fea30f8a3004ce6762d9b053.png[/screen][screen]http://img12.lostpic.net/2018/04/14/e2ea0670a28f17b192bbf614ce66016b.png[/screen]Свернуть


    Инфо-файл
    Общее
    Уникальный идентификатор                 : 176008541348400237666034821686919566043 (0x846A0314135E9BB2887E67248B9A12DB)
    Полное имя                               : По.ту.сторону.закона.2002.WEB-DL.1080p.mkv
    Формат                                   : Matroska
    Версия формата                           : Version 2
    Размер файла                             : 10,3 Гбайт
    Продолжительность                        : 1 ч. 37 м.
    Режим общего битрейта                    : Переменный
    Общий поток                              : 15,1 Мбит/сек
    Дата кодирования                         : UTC 2018-04-14 17:34:45
    Программа кодирования                    : mkvmerge v5.8.0 ("No Sleep / Pillow") built on Sep  2 2012 15:37:04
    Библиотека кодирования                   : libebml v1.2.3 + libmatroska v1.3.0

    Видео
    Идентификатор                            : 1
    Формат                                   : AVC
    Формат/Информация                        : Advanced Video Codec
    Профиль формата                          : High@L4
    Настройки формата                        : CABAC / 4 Ref Frames
    Параметр CABAC формата                   : Да
    Параметр RefFrames формата               : 4 кадра
    Идентификатор кодека                     : V_MPEG4/ISO/AVC
    Продолжительность                        : 1 ч. 37 м.
    Вид битрейта                             : Переменный
    Битрейт                                  : 14,2 Мбит/сек
    Максимальный битрейт                     : 15,0 Мбит/сек
    Ширина                                   : 1920 пикселей
    Высота                                   : 1080 пикселей
    Соотношение сторон                       : 16:9
    Режим частоты кадров                     : Постоянный
    Частота кадров                           : 23,976 (24000/1001) кадра/сек
    Цветовое пространство                    : YUV
    Субдискретизация насыщенности            : 4:2:0
    Битовая глубина                          : 8 бит
    Тип развёртки                            : Прогрессивная
    Бит/(Пиксели*Кадры)                      : 0.285
    Размер потока                            : 9,67 Гбайт (94%)
    Библиотека кодирования                   : x264 core 148 r2623 d5b2374
    Настройки программы                      : cabac=1 / ref=4 / deblock=1:-1:-1 / analyse=0x3:0x133 / me=umh / subme=9 / psy=1 / psy_rd=1.00:0.15 / mixed_ref=1 / me_range=24 / chroma_me=1 / trellis=2 / 8x8dct=1 / cqm=0 / deadzone=21,11 / fast_pskip=1 / chroma_qp_offset=-3 / threads=34 / lookahead_threads=5 / sliced_threads=0 / nr=150 / decimate=1 / interlaced=0 / bluray_compat=0 / constrained_intra=0 / bframes=8 / b_pyramid=2 / b_adapt=2 / b_bias=0 / direct=3 / weightb=1 / open_gop=0 / weightp=2 / keyint=120 / keyint_min=61 / scenecut=0 / intra_refresh=0 / rc_lookahead=120 / rc=crf / mbtree=1 / crf=18.0 / qcomp=0.60 / qpmin=0 / qpmax=69 / qpstep=4 / vbv_maxrate=15000 / vbv_bufsize=31250 / crf_max=0.0 / nal_hrd=vbr / filler=0 / ip_ratio=1.40 / aq=3:1.00
    Язык                                     : English
    Default                                  : Нет
    Forced                                   : Нет
    Цветовой диапазон                        : Limited
    Основные цвета                           : BT.709
    Характеристики трансфера                 : BT.709
    Коэффициенты матрицы                     : BT.709

    Аудио #1
    Идентификатор                            : 2
    Формат                                   : AC-3
    Формат/Информация                        : Audio Coding 3
    Идентификатор кодека                     : A_AC3
    Продолжительность                        : 1 ч. 37 м.
    Вид битрейта                             : Постоянный
    Битрейт                                  : 384 Кбит/сек
    Каналы                                   : 6 каналов
    Расположение каналов                     : Front: L C R, Side: L R, LFE
    Частота                                  : 48,0 КГц
    Частота кадров                           : 31,250 кадров/сек (1536 SPF)
    Битовая глубина                          : 16 бит
    Метод сжатия                             : С потерями
    Размер потока                            : 269 Мбайт (3%)
    Заголовок                                : DVO
    Язык                                     : Russian
    По умолчанию                             : Да
    Принудительно                            : Нет

    Аудио #2
    Идентификатор                            : 3
    Формат                                   : E-AC-3
    Формат/Информация                        : Enhanced Audio Coding 3
    Идентификатор кодека                     : A_EAC3
    Продолжительность                        : 1 ч. 37 м.
    Вид битрейта                             : Постоянный
    Битрейт                                  : 224 Кбит/сек
    Каналы                                   : 2 канала
    Расположение каналов                     : Front: L R
    Частота                                  : 48,0 КГц
    Частота кадров                           : 187,500 кадров/сек (256 SPF)
    Метод сжатия                             : С потерями
    Задержка видео                           : 32 мс.
    Размер потока                            : 157 Мбайт (1%)
    Заголовок                                : Original
    Язык                                     : English
    По умолчанию                             : Нет
    Принудительно                            : Нет

    Текст #1
    Идентификатор                            : 4
    Формат                                   : UTF-8
    Идентификатор кодека                     : S_TEXT/UTF8
    Идентификатор кодека/Информация          : UTF-8 Plain Text
    Язык                                     : Russian
    По умолчанию                             : Нет
    Принудительно                            : Нет

    Текст #2
    Идентификатор                            : 5
    Формат                                   : UTF-8
    Идентификатор кодека                     : S_TEXT/UTF8
    Идентификатор кодека/Информация          : UTF-8 Plain Text
    Язык                                     : English
    По умолчанию                             : Нет
    Принудительно                            : Нет

    Меню
    00:00:00.000                             : en:Chapter 1
    00:08:12.000                             : en:Chapter 2
    00:19:07.000                             : en:Chapter 3
    00:27:34.000                             : en:Chapter 4
    00:35:27.000                             : en:Chapter 5
    00:43:13.000                             : en:Chapter 6
    00:51:04.000                             : en:Chapter 7
    00:57:32.000                             : en:Chapter 8
    01:05:22.000                             : en:Chapter 9
    01:13:15.000                             : en:Chapter 10
    01:20:20.000                             : en:Chapter 11
    01:30:47.000                             : en:Chapter 12Свернуть


    Сборка: [img]http://i1.imageban.ru/out/2018/02/13/db08a675822da337df05f97bda2ce544.gif[/img]
    Инструкция по скачиванию
     1  Качаем uTorrent версии 2.0 и выше
     2  После установки, жмем выше под постером на ссылку Скачать [MediaGet] или Скачать .torrent
     3  Открываем скачанный файл через соответствующий клиент: MediaGet или uTorrent
     4  Ждем пока подключатся участники
     5  Качаем
    Комментарии о  По ту сторону закона / Dead Heat | WEB-DL 1080p 
    Ближайшее в кино
    Вверх