• Игры для PS3
  • Игры для XBOX360
  • Игры для PC
  • Игры для PS2
  • Игры для PSP
  • Для телефонов
  • Музыка
  • Книги/Журналы
  • Обои
  •  
    Опрос
    Откуда Вы о нас узнали?
      0
    • От знакомых2,1,false,300,full
    • Из социальных сетей2,2,false,300,full
    • Из поисковых систем2,3,false,300,full
    • Другое2,4,false,300,full
    Статистика
    Загрузка...
    Звёздные войны: Последние джедаи / Star Wars: Episode VIII - The Last Jedi | BDRip 1080p
    Статус  Проверено
    В закладки
    Модератор: Max

    Звёздные войны: Последние джедаи / Star Wars: Episode VIII - The Last Jedi | BDRip 1080p [Фильмы 2017] скачать торрентом/torrent бесплатно

    Год выхода
    Язык
    Закачал
    Аноним | 15 апреля в 09ч 41м 27с
    Раздел
    Отзывов
    0
    Раздают: 32 Качают: 10 Скачали: 293 Размер: 20.32 GB
    Инфо о раздаче | Благодарности |
    0/5
    0
    0 5 0
    Поддержи нас — расскажи друзьям!
    Orbitum
    Новый интернет-браузер Быстрее загружает сайты Экономит интернет—трафик Меняет оформление страницы ВК Блокирует всю рекламу на сайтах Загружает торренты как

    µTorrent

    клиент
    Объеденяет все твои чаты из соц. сетей в один Проигрывает твою музыку не заходя во ВКонтакте
    Скачать и многое другое... Подробности на сайте производителя
    Название: Звёздные войны: Последние джедаи
    Оригинальное название: Star Wars: Episode VIII - The Last Jedi
    Год выхода: 2017
    Жанр: Фантастика, боевик, приключения
    Режиссер: Райан Джонсон
    В ролях: Марк Хэмилл, Кэрри Фишер, Адам Драйвер, Дэйзи Ридли, Джон Бойега, Оскар Айзек, Энди Серкис, Лупита Нионго, Донал Глисон, Энтони Дэниелс

    О фильме: Новая история о противостоянии света и тьмы, добра и зла начинается после гибели Хана Соло. В Галактике, где Первый Орден и Сопротивление яростно сражаются друг с другом в войне, героиня Рей пробудила в себе Силу. Но что произойдет, когда она встретится с единственным оставшимся в живых рыцарем-джедаем — Люком Скайуокером? Кайло Рен перешел на Темную сторону Силы и убил собственного отца, заняв высокую позицию в Первом Ордене. Но куда приведут его неуемные амбиции, подаренные по наследству грозным дедом Дартом Вейдером? Ситуация обострится еще больше, когда мать Кайло, лидер Сопротивления Лея, вместе с По, Финном и BB-8 приступит к новой миссии.



    Страна: США
    Студия: Lucasfilm Ltd., Ram Bergman Productions, Walt Disney Pictures
    Продолжительность: 02:31:51
    Перевод: профессиональный (дублированный), авторский (одноголосый)
    Субтитры: русские (forced, full), английские (forced, full)

    Формат: MKV
    Качество: BDRip 1080p [DON]
    Видео: MPEG-4 AVC Video / 15,4 Mbps / 1920x804 / 23.976 fps
    Звук:
    Russian: DD Audio / 5.1 / 48 kHz / 384 kbps - Дубляж (iTunes)
    Russian: DTS Audio / 5.1 / 48 kHz / 1536 kbps - Авторский (Живов)
    English: DTS Audio / 5.1 / 48 kHz / 1536 kbps - Оригинал (Английский)

    MediaInfo
    Format                      : Matroska
    Format version              : Version 2
    File size                   : 20.3 GiB
    Duration                    : 2 h 32 min
    Overall bit rate            : 19.1 Mb/s
    Movie name                  : Star Wars: Episode VIII - The Last Jedi (2017) BDRip 1080p [DON]
    Encoded date                : UTC 2018-04-14 22:52:25
    Writing application         : mkvmerge v4.9.1 ("Ich will") сборка от Jul 11 2011 23:53:15
    Writing library             : libebml v1.2.1 + libmatroska v1.1.1

    Video
    ID                          : 1
    Format                      : AVC
    Format/Info                 : Advanced Video Codec
    Format profile              : High@L4.1
    Format settings, CABAC      : Yes
    Format settings, RefFrames  : 5 frames
    Codec ID                    : V_MPEG4/ISO/AVC
    Duration                    : 2 h 32 min
    Bit rate                    : 15.4 Mb/s
    Width                       : 1 920 pixels
    Height                      : 804 pixels
    Display aspect ratio        : 2.40:1
    Frame rate mode             : Constant
    Frame rate                  : 23.976 (24000/1001) FPS
    Color space                 : YUV
    Chroma subsampling          : 4:2:0
    Bit depth                   : 8 bits
    Scan type                   : Progressive
    Bits/(Pixel*Frame)          : 0.415
    Stream size                 : 16.3 GiB (80%)
    Title                       : Звёздные войны: Последние джедаи
    Writing library             : x264 core 155 r2901 7d0ff22
    Encoding settings           : cabac=1 / ref=5 / deblock=1:-3:-3 / analyse=0x3:0x133 / me=umh / subme=10 / psy=1 / psy_rd=0.95:0.00 / mixed_ref=1 / me_range=32 / chroma_me=1 / trellis=2 / 8x8dct=1 / cqm=0 / deadzone=21,11 / fast_pskip=0 / chroma_qp_offset=-2 / threads=18 / lookahead_threads=4 / sliced_threads=0 / nr=0 / decimate=0 / interlaced=0 / bluray_compat=0 / constrained_intra=0 / bframes=10 / b_pyramid=2 / b_adapt=2 / b_bias=0 / direct=3 / weightb=1 / open_gop=0 / weightp=2 / keyint=240 / keyint_min=23 / scenecut=40 / intra_refresh=0 / rc_lookahead=40 / rc=crf / mbtree=0 / crf=16.5 / qcomp=0.60 / qpmin=0 / qpmax=69 / qpstep=4 / vbv_maxrate=62500 / vbv_bufsize=78125 / crf_max=0.0 / nal_hrd=none / filler=0 / ip_ratio=1.40 / pb_ratio=1.30 / aq=3:0.85
    Language                    : English
    Default                     : Yes
    Forced                      : No

    Audio #1
    ID                          : 2
    Format                      : AC-3
    Format/Info                 : Audio Coding 3
    Format settings, Endianness : Big
    Codec ID                    : A_AC3
    Duration                    : 2 h 32 min
    Bit rate mode               : Constant
    Bit rate                    : 384 kb/s
    Channel(s)                  : 6 channels
    Channel positions           : Front: L C R, Side: L R, LFE
    Sampling rate               : 48.0 kHz
    Frame rate                  : 31.250 FPS (1536 SPF)
    Bit depth                   : 16 bits
    Compression mode            : Lossy
    Stream size                 : 418 MiB (2%)
    Title                       : Дубляж
    Language                    : Russian
    Service kind                : Complete Main
    Default                     : Yes
    Forced                      : No

    Audio #2
    ID                          : 3
    Format                      : DTS
    Format/Info                 : Digital Theater Systems
    Mode                        : 16
    Format settings, Endianness : Big
    Codec ID                    : A_DTS
    Duration                    : 2 h 32 min
    Bit rate mode               : Constant
    Bit rate                    : 1 509 kb/s
    Channel(s)                  : 6 channels
    Channel positions           : Front: L C R, Side: L R, LFE
    Sampling rate               : 48.0 kHz
    Frame rate                  : 93.750 FPS (512 SPF)
    Bit depth                   : 24 bits
    Compression mode            : Lossy
    Stream size                 : 1.60 GiB (8%)
    Title                       : Живов
    Language                    : Russian
    Default                     : No
    Forced                      : No

    Audio #3
    ID                          : 4
    Format                      : DTS
    Format/Info                 : Digital Theater Systems
    Mode                        : 16
    Format settings, Endianness : Big
    Codec ID                    : A_DTS
    Duration                    : 2 h 32 min
    Bit rate mode               : Constant
    Bit rate                    : 1 509 kb/s
    Channel(s)                  : 6 channels
    Channel positions           : Front: L C R, Side: L R, LFE
    Sampling rate               : 48.0 kHz
    Frame rate                  : 93.750 FPS (512 SPF)
    Bit depth                   : 24 bits
    Compression mode            : Lossy
    Stream size                 : 1.60 GiB (8%)
    Title                       : Оригинал
    Language                    : English
    Default                     : No
    Forced                      : No

    Text #1
    ID                          : 5
    Format                      : UTF-8
    Codec ID                    : S_TEXT/UTF8
    Codec ID/Info               : UTF-8 Plain Text
    Title                       : Forced
    Language                    : Russian
    Default                     : Yes
    Forced                      : No

    Text #2
    ID                          : 6
    Format                      : UTF-8
    Codec ID                    : S_TEXT/UTF8
    Codec ID/Info               : UTF-8 Plain Text
    Title                       : Full
    Language                    : Russian
    Default                     : No
    Forced                      : No

    Text #3
    ID                          : 7
    Format                      : UTF-8
    Codec ID                    : S_TEXT/UTF8
    Codec ID/Info               : UTF-8 Plain Text
    Title                       : Forced
    Language                    : English
    Default                     : No
    Forced                      : No

    Text #4
    ID                          : 8
    Format                      : UTF-8
    Codec ID                    : S_TEXT/UTF8
    Codec ID/Info               : UTF-8 Plain Text
    Title                       : Full
    Language                    : English
    Default                     : No
    Forced                      : No

    Menu
    00:00:00.000                : en:00:00:00.000
    00:00:18.644                : en:00:00:18.644
    00:01:45.731                : en:00:01:45.731
    00:03:11.817                : en:00:03:11.817
    00:07:43.296                : en:00:07:43.296
    00:12:48.434                : en:00:12:48.434
    00:13:44.574                : en:00:13:44.574
    00:16:29.280                : en:00:16:29.280
    00:19:59.281                : en:00:19:59.281
    00:22:51.370                : en:00:22:51.370
    00:26:04.980                : en:00:26:04.980
    00:27:22.850                : en:00:27:22.850
    00:31:24.758                : en:00:31:24.758
    00:32:54.681                : en:00:32:54.681
    00:35:27.667                : en:00:35:27.667
    00:38:11.498                : en:00:38:11.498
    00:41:53.428                : en:00:41:53.428
    00:44:29.542                : en:00:44:29.542
    00:46:51.475                : en:00:46:51.475
    00:51:41.932                : en:00:51:41.932
    00:53:50.060                : en:00:53:50.060
    00:55:41.505                : en:00:55:41.505
    00:57:39.581                : en:00:57:39.581
    00:59:16.636                : en:00:59:16.636
    01:02:05.847                : en:01:02:05.847
    01:03:07.701                : en:01:03:07.701
    01:05:41.729                : en:01:05:41.729
    01:07:03.478                : en:01:07:03.478
    01:10:25.721                : en:01:10:25.721
    01:13:30.323                : en:01:13:30.323
    01:17:43.450                : en:01:17:43.450
    01:20:53.057                : en:01:20:53.057
    01:24:17.970                : en:01:24:17.970
    01:26:23.220                : en:01:26:23.220
    01:27:59.524                : en:01:27:59.524
    01:30:49.361                : en:01:30:49.361
    01:32:54.569                : en:01:32:54.569
    01:35:53.706                : en:01:35:53.706
    01:37:10.616                : en:01:37:10.616
    01:39:12.864                : en:01:39:12.864
    01:42:07.663                : en:01:42:07.663
    01:45:03.714                : en:01:45:03.714
    01:49:35.694                : en:01:49:35.694
    01:52:20.609                : en:01:52:20.609
    01:56:04.749                : en:01:56:04.749
    01:58:52.083                : en:01:58:52.083
    02:03:11.134                : en:02:03:11.134
    02:06:39.759                : en:02:06:39.759
    02:11:43.604                : en:02:11:43.604
    02:15:12.104                : en:02:15:12.104
    02:20:16.700                : en:02:20:16.700
    02:23:39.694                : en:02:23:39.694


    Еще похожие »

    Как скачать?
    1. Качаем UTorrent версии 2.0 и выше отсюда
    2. После установки, жмем на ссылку Скачать торрент.
    3. Открываем его через utorrent.
    4. Ждем пока подключатся участники.
    5. Качаем.


    Комментарии о Звёздные войны: Последние джедаи / Star Wars: Episode VIII - The Last Jedi | BDRip 1080p
    Добавлять комментарии могут только зарегистрированные пользователи

    Зарегистрироваться или Войти


    Ближайшее в кино
    • Привидение дата выхода 26 апреля 2018Привидение
      Дата выхода: 26 апреля 2018
    • 1045590|Правда или действие|26 апреля 2018|200|300Правда или действие
      Дата выхода: 26 апреля 2018
    • 841470|Смешарики. Дежавю|26 апреля 2018|200|300Смешарики. Дежавю
      Дата выхода: 26 апреля 2018
    • 1046545|Танки|26 апреля 2018|200|300Танки
      Дата выхода: 26 апреля 2018
    • 1027311|Дыши во мгле|26 апреля 2018|200|300Дыши во мгле
      Дата выхода: 26 апреля 2018
    • 959260|Миссис Хайд|26 апреля 2018|200|300Миссис Хайд
      Дата выхода: 26 апреля 2018
    • 845128|Я заберу твои деньги|26 апреля 2018|200|300Я заберу твои деньги
      Дата выхода: 26 апреля 2018
    • 1112036|Лицо|26 апреля 2018|200|300Лицо
      Дата выхода: 26 апреля 2018
    • 1076322|Великолепная|26 апреля 2018|200|300Великолепная
      Дата выхода: 26 апреля 2018
    • 1110934|Золушка|28 апреля 2018|200|300Золушка
      Дата выхода: 28 апреля 2018
    • 1115701|МУЛЬТ в кино. Выпуск №74. Планета Май!|28 апреля 2018|200|300МУЛЬТ в кино. Выпуск №74. Планета Май!
      Дата выхода: 28 апреля 2018
    • 928533|Папа-мама гусь|1 мая 2018|200|300Папа-мама гусь
      Дата выхода: 1 мая 2018
    • 843649|Мстители: Война бесконечности|3 мая 2018|200|300Мстители: Война бесконечности
      Дата выхода: 3 мая 2018
    • 939785|Остров собак|3 мая 2018|200|300Остров собак
      Дата выхода: 3 мая 2018
    • 905031|Собибор|3 мая 2018|200|300Собибор
      Дата выхода: 3 мая 2018
    Вверх