• Игры для PS3
  • Игры для XBOX360
  • Игры для PC
  • Игры для PS2
  • Игры для PSP
  • Для телефонов
  • Музыка
  • Книги/Журналы
  • Обои
  •  
    Опрос
    Удобен ли сайт в использовании?
      0
    • Очень удобен, все понятно1,1,false,300,full
    • Удобен1,2,false,300,full
    • Средне1,3,false,300,full
    • Неудобен, трудно ориентироваться1,4,false,300,full
    • Совсем неудобен1,5,false,300,full
    Статистика
    Загрузка...
    Секретное досье / The Post | BDRemux
    Статус  Проверено
    В закладки
    Модератор: Max

    Секретное досье / The Post | BDRemux [Фильмы 2017] скачать торрентом/torrent бесплатно

    Год выхода
    Язык
    Закачал
    Аноним | 15 апреля в 09ч 42м 38с
    Раздел
    Отзывов
    0
    Раздают: 48 Качают: 95 Скачали: 85 Размер: 55.7 GB
    Инфо о раздаче | Благодарности |
    0/5
    0
    0 5 0
    Поддержи нас — расскажи друзьям!
    Orbitum
    Новый интернет-браузер Быстрее загружает сайты Экономит интернет—трафик Меняет оформление страницы ВК Блокирует всю рекламу на сайтах Загружает торренты как

    µTorrent

    клиент
    Объеденяет все твои чаты из соц. сетей в один Проигрывает твою музыку не заходя во ВКонтакте
    Скачать и многое другое... Подробности на сайте производителя
    Секретное досье
    The Post

    Информация о фильме
    Название: Секретное досье
    Оригинальное название: The Post
    Год выпуска: 2017
    Жанр:  Триллер, драма, биография, история
    Выпущено: США, Amblin Entertainment, DreamWorks SKG
    Режиссер: Стивен Спилберг
    В ролях: Мэрил Стрип, Том Хэнкс, Сара Полсон, Боб Оденкёрк, Трэйси Леттс, Брэдли Уитфорд, Брюс Гринвуд, Мэттью Рис, Элисон Бри, Кэрри Кун
    Продолжительность: 01:55:58

    Описание:
    История Кэтрин Грэм, первой женщины-издателя газеты «Вашингтон пост», и редактора Бена Брэдли. Они вступают в гонку с «Нью-Йорк таймс» за право пролить свет на государственные тайны, скрывавшиеся более 30 лет. Журналистам придется преодолеть свои разногласия и рискнуть карьерой и свободой, чтобы мир узнал правду.



    Файл
    Контейнер: MKV
    Качество: Blu-Ray Remux (2160p)
    Видео: HEVC, 61.6 Мбит/с, 3840x2160, 23.976 кадр/с

    Аудио #1: |RUS| AC-3, 48.0 kHz, 6 ch, 640 kb/s, CBR | MVO [HDrezka Studio]
    Аудио #2: |RUS| DTS, 48.0 kHz, 6 ch, 1 510 kb/s, CBR | MVO [HDrezka Studio]
    Аудио #3: |ENG| DTS MA / ES Matrix / Core, 48.0 kHz, 8 / 7 / 6 ch, 4 551 kb/s / 1 509 kb/s / 1 509 kb/s, VBR / CBR / CBR | Original |
    Аудио #4: |ENG| AC-3, 48.0 kHz, 6 ch, 448 kb/s, CBR | Audiodeion |

    Субтитры: Russian (Full), English (Full, SDH)



    MI

    Общее
    Уникальный идентификатор                 : 4636039838203560458126714859938363932 (0x37CDE6955A175E039D25C54B84BBA1C)
    Полное имя                               : The.Post.2017.UHD.BDRemux.2160p.HEVC.HDR.IVA(RUS-mvo.ENG).ExKinoRay.mkv
    Формат                                   : Matroska
    Версия формата                           : Version 4 / Version 2
    Размер файла                             : 55,7 Гбайт
    Продолжительность                        : 1 ч. 55 м.
    Общий поток                              : 68,8 Мбит/сек
    Название фильма                          : Секретное досье / The Post ( 2017 ) | BDRemux | HDR, 4K | IVA(RUS-mvo.ENG) | ExKinoRay
    Дата кодирования                         : UTC 2018-04-14 23:41:49
    Программа кодирования                    : mkvmerge v22.0.0 ("At The End Of The World") 64-bit
    Библиотека кодирования                   : libebml v1.3.5 + libmatroska v1.4.8
    Обложка                                  : Yes

    Видео
    Идентификатор                            : 1
    Формат                                   : HEVC
    Формат/Информация                        : High Efficiency Video Coding
    Коммерческое название                    : HDR10
    Профиль формата                          : Main 10@L5.1@High
    Идентификатор кодека                     : V_MPEGH/ISO/HEVC
    Продолжительность                        : 1 ч. 55 м.
    Битрейт                                  : 61,6 Мбит/сек
    Ширина                                   : 3840 пикселей
    Высота                                   : 2160 пикселей
    Соотношение сторон                       : 16:9
    Режим частоты кадров                     : Постоянный
    Частота кадров                           : 23,976 (24000/1001) кадра/сек
    Цветовое пространство                    : YUV
    Субдискретизация насыщенности            : 4:2:0 (Type 2)
    Битовая глубина                          : 10 бит
    Бит/(Пиксели*Кадры)                      : 0.310
    Размер потока                            : 49,9 Гбайт (90%)
    Заголовок                                : The.Post.2017.UHD.BDRemux.2160p
    Библиотека кодирования                   : ATEME Titan File 3.8.13 (4.8.13.0)      
    Язык                                     : English
    Default                                  : Да
    Forced                                   : Нет
    Цветовой диапазон                        : Limited
    Основные цвета                           : BT.2020
    Характеристики трансфера                 : PQ
    Коэффициенты матрицы                     : BT.2020 non-constant
    MasteringDisplay_Luminance               : min: 0.0050 cd/m2, max: 1000 cd/m2

    Аудио #1
    Идентификатор                            : 2
    Формат                                   : AC-3
    Формат/Информация                        : Audio Coding 3
    Идентификатор кодека                     : A_AC3
    Продолжительность                        : 1 ч. 55 м.
    Вид битрейта                             : Постоянный
    Битрейт                                  : 640 Кбит/сек
    Каналы                                   : 6 каналов
    Расположение каналов                     : Front: L C R, Side: L R, LFE
    Частота                                  : 48,0 КГц
    Частота кадров                           : 31,250 кадров/сек (1536 SPF)
    Битовая глубина                          : 16 бит
    Метод сжатия                             : С потерями
    Размер потока                            : 531 Мбайт (1%)
    Заголовок                                : MVO [HDrezka Studio]
    Язык                                     : Russian
    ServiceKind                       : Complete Main
    Default                                  : Да
    Forced                                   : Нет

    Аудио #2
    Идентификатор                            : 3
    Формат                                   : DTS
    Формат/Информация                        : Digital Theater Systems
    Идентификатор кодека                     : A_DTS
    Продолжительность                        : 1 ч. 55 м.
    Вид битрейта                             : Постоянный
    Битрейт                                  : 1510 Кбит/сек
    Каналы                                   : 6 каналов
    Расположение каналов                     : Front: L C R, Side: L R, LFE
    Частота                                  : 48,0 КГц
    Частота кадров                           : 93,750 кадра/сек (512 SPF)
    Битовая глубина                          : 24 бит
    Метод сжатия                             : С потерями
    Размер потока                            : 1,22 Гбайт (2%)
    Заголовок                                : MVO [HDrezka Studio]
    Язык                                     : Russian
    Default                                  : Нет
    Forced                                   : Нет

    Аудио #3
    Идентификатор                            : 4
    Формат                                   : DTS
    Формат/Информация                        : Digital Theater Systems
    Профиль формата                          : MA / ES Matrix / Core
    Идентификатор кодека                     : A_DTS
    Продолжительность                        : 1 ч. 55 м.
    Вид битрейта                             : Переменный / Постоянный / Постоянный
    Битрейт                                  : 4551 Кбит/сек / 1509 Кбит/сек / 1509 Кбит/сек
    Каналы                                   : 8 каналов / 7 каналов / 6 каналов
    Расположение каналов                     : Front: L C R, Side: L R, Back: L R, LFE / Front: L C R, Side: L R, Back: C, LFE / Front: L C R, Side: L R, LFE
    Частота                                  : 48,0 КГц
    Частота кадров                           : 93,750 кадра/сек (512 SPF)
    Битовая глубина                          : 24 бит
    Метод сжатия                             : Без потерь / Lossy / Lossy
    Размер потока                            : 3,69 Гбайт (7%)
    Заголовок                                : | Original |
    Язык                                     : English
    Default                                  : Нет
    Forced                                   : Нет

    Аудио #4
    Идентификатор                            : 5
    Формат                                   : AC-3
    Формат/Информация                        : Audio Coding 3
    Идентификатор кодека                     : A_AC3
    Продолжительность                        : 1 ч. 55 м.
    Вид битрейта                             : Постоянный
    Битрейт                                  : 448 Кбит/сек
    Каналы                                   : 6 каналов
    Расположение каналов                     : Front: L C R, Side: L R, LFE
    Частота                                  : 48,0 КГц
    Частота кадров                           : 31,250 кадров/сек (1536 SPF)
    Битовая глубина                          : 16 бит
    Метод сжатия                             : С потерями
    Размер потока                            : 372 Мбайт (1%)
    Заголовок                                : | Audiodescriprion |
    Язык                                     : English
    ServiceKind                      : Complete Main
    Default                                  : Нет
    Forced                                   : Нет

    Текст #1
    Идентификатор                            : 6
    Формат                                   : UTF-8
    Идентификатор кодека                     : S_TEXT/UTF8
    Идентификатор кодека/Информация          : UTF-8 Plain Text
    Продолжительность                        : 1 ч. 49 м.
    Битрейт                                  : 139 бит/сек
    ElementCount                             : 1977
    Размер потока                            : 112 Кбайт (0%)
    Заголовок                                : Full
    Язык                                     : Russian
    Default                                  : Нет
    Forced                                   : Нет

    Текст #2
    Идентификатор                            : 7
    Формат                                   : UTF-8
    Идентификатор кодека                     : S_TEXT/UTF8
    Идентификатор кодека/Информация          : UTF-8 Plain Text
    Продолжительность                        : 1 ч. 48 м.
    Битрейт                                  : 88 бит/сек
    ElementCount                             : 2170
    Размер потока                            : 69,9 Кбайт (0%)
    Заголовок                                : Full
    Язык                                     : English
    Default                                  : Нет
    Forced                                   : Нет

    Текст #3
    Идентификатор                            : 8
    Формат                                   : UTF-8
    Идентификатор кодека                     : S_TEXT/UTF8
    Идентификатор кодека/Информация          : UTF-8 Plain Text
    Продолжительность                        : 1 ч. 48 м.
    Битрейт                                  : 93 бит/сек
    ElementCount                             : 2284
    Размер потока                            : 74,1 Кбайт (0%)
    Заголовок                                : SDH
    Язык                                     : English
    Default                                  : Нет
    Forced                                   : Нет

    Текст #4
    Идентификатор                            : 9
    Формат                                   : PGS
    Идентификатор кодека                     : S_HDMV/PGS
    Идентификатор кодека/Информация          : Picture based subtitle format used on BDs/HD-DVDs
    Продолжительность                        : 1 ч. 48 м.
    Битрейт                                  : 59,1 Кбит/сек
    ElementCount                             : 4568
    Размер потока                            : 45,9 Мбайт (0%)
    Язык                                     : English
    Default                                  : Нет
    Forced                                   : Нет

    Меню
    00:00:00.000                             : en:Chapter 1
    00:05:01.926                             : en:Chapter 2
    00:10:08.733                             : en:Chapter 3
    00:12:32.793                             : en:Chapter 4
    00:16:22.398                             : en:Chapter 5
    00:19:19.616                             : en:Chapter 6
    00:24:53.325                             : en:Chapter 7
    00:30:23.988                             : en:Chapter 8
    00:34:51.672                             : en:Chapter 9
    00:39:08.679                             : en:Chapter 10
    00:43:25.811                             : en:Chapter 11
    00:48:20.564                             : en:Chapter 12
    00:54:38.692                             : en:Chapter 13
    00:59:39.784                             : en:Chapter 14
    01:03:49.116                             : en:Chapter 15
    01:09:59.570                             : en:Chapter 16
    01:14:04.857                             : en:Chapter 17
    01:20:20.273                             : en:Chapter 18
    01:24:30.732                             : en:Chapter 19
    01:30:22.667                             : en:Chapter 20
    01:35:23.759                             : en:Chapter 21
    01:38:46.545                             : en:Chapter 22
    01:43:07.723                             : en:Chapter 23
    01:49:27.852                             : en:Chapter 24

    Как скачать?
    1. Качаем UTorrent версии 2.0 и выше отсюда
    2. После установки, жмем на ссылку Скачать торрент.
    3. Открываем его через utorrent.
    4. Ждем пока подключатся участники.
    5. Качаем.


    Комментарии о Секретное досье / The Post | BDRemux
    Добавлять комментарии могут только зарегистрированные пользователи

    Зарегистрироваться или Войти


    Ближайшее в кино
    • Тренер дата выхода 19 апреля 2018Тренер
      Дата выхода: 19 апреля 2018
    • 930555|Титан|19 апреля 2018|200|300Титан
      Дата выхода: 19 апреля 2018
    • 979129|Третья волна зомби|19 апреля 2018|200|300Третья волна зомби
      Дата выхода: 19 апреля 2018
    • 958501|Опасный бизнес|19 апреля 2018|200|300Опасный бизнес
      Дата выхода: 19 апреля 2018
    • 799482|Логово Монстра|19 апреля 2018|200|300Логово Монстра
      Дата выхода: 19 апреля 2018
    • 924167|Точка невозврата|19 апреля 2018|200|300Точка невозврата
      Дата выхода: 19 апреля 2018
    • 1103852|Укрась прощальное утро цветами обещания|19 апреля 2018|200|300Укрась прощальное утро цветами обещания
      Дата выхода: 19 апреля 2018
    • 845128|Я заберу твои деньги|19 апреля 2018|200|300Я заберу твои деньги
      Дата выхода: 19 апреля 2018
    • 1062316|Свинья|19 апреля 2018|200|300Свинья
      Дата выхода: 19 апреля 2018
    • 1075751|Фея|19 апреля 2018|200|300Фея
      Дата выхода: 19 апреля 2018
    • 1082597|Леонардо: Миссия Мона Лиза|19 апреля 2018|200|300Леонардо: Миссия Мона Лиза
      Дата выхода: 19 апреля 2018
    • 986511|Вествуд: Панк, икона, активист|19 апреля 2018|200|300Вествуд: Панк, икона, активист
      Дата выхода: 19 апреля 2018
    • 1047724|Привидение|26 апреля 2018|200|300Привидение
      Дата выхода: 26 апреля 2018
    • 1045590|Правда или действие|26 апреля 2018|200|300Правда или действие
      Дата выхода: 26 апреля 2018
    • 841470|Смешарики. Дежавю|26 апреля 2018|200|300Смешарики. Дежавю
      Дата выхода: 26 апреля 2018
    Вверх