• Игры для PS3
  • Игры для XBOX360
  • Игры для PC
  • Игры для PS2
  • Игры для PSP
  • Для телефонов
  • Музыка
  • Книги/Журналы
  • Обои
  •  
    Опрос
    Удобен ли сайт в использовании?
      0
    • Очень удобен, все понятно1,1,false,300,full
    • Удобен1,2,false,300,full
    • Средне1,3,false,300,full
    • Неудобен, трудно ориентироваться1,4,false,300,full
    • Совсем неудобен1,5,false,300,full
    Статистика
    Загрузка...
    Шестой день / The 6th Day | BDRip 720p
    Статус  Проверено
    В закладки
    Модератор: Max

    Шестой день / The 6th Day | BDRip 720p [Фильмы 2000] скачать торрентом/torrent бесплатно

    Год выхода
    Язык
    Закачал
    Max | 15 апреля в 10ч 42м 06с
    Раздел
    Отзывов
    0
    Раздают: 16 Качают: 3 Скачали: 82 Размер: 5.76 GB
    Инфо о раздаче | Благодарности |
    0/5
    0
    0 5 0
    Поддержи нас — расскажи друзьям!
    Orbitum
    Новый интернет-браузер Быстрее загружает сайты Экономит интернет—трафик Меняет оформление страницы ВК Блокирует всю рекламу на сайтах Загружает торренты как

    µTorrent

    клиент
    Объеденяет все твои чаты из соц. сетей в один Проигрывает твою музыку не заходя во ВКонтакте
    Скачать и многое другое... Подробности на сайте производителя
    Информация о фильме
    Название: Шестой день
    Оригинальное название: The 6th Day
    Год выпуска: 2000
    Жанр:  Фантастика, боевик, триллер
    Выпущено: США, Phoenix Pictures
    Режиссер: Роджер Споттисвуд
    В ролях: Арнольд Шварценеггер, Майкл Рапапорт, Тони Голдуин, Майкл Рукер, Сара Уайнтер, Венди Крюсон, Родни Роулэнд, Терри Крюс, Кен Поуг, Колин Каннингэм, Роберт Дювалл, Ванда Кэннон, Тейлор Энн Рейд, Дженнифер Гэрис, Дон МакМанус, Стив Бачич, Кристофер Лоуфорд, Марк Брэндон, Элли Харви, Дон С. Дэвис, Крис Каунд, Бен Басс, Роберт Кларк (III), Майкл Бадман, Уоррен Такэути, Клодин Грант, Александра Кастилло, Колин Лоуренс, Марк Гиббон, Брайан Дженсен, Кроуфорд Джеймс, Питер Кент, Хиро Канагава, Ми-Чжон Ли, Джиллиан Барбер, Джерард Планкет, Клер Райли, Эндрю МакИлрой, Норма Жан Уик, Пол Карсон, Грэхэм Эндрюс, Беннита Ха, Андреа Либман

    О фильме: Клонирование - хорошо это или нет? Человечество так и не определилось. Но в будущем закон о запрете выращивания человеческих клонов был принят безоговорочно. В честь дня сотворения человека Богом, его назвали "Законом Шестого Дня". Говорят, законы для того и существуют, чтобы нарушать их. И эта история не стала исключением. Всё началось тем поздним вечером, когда пилот вертолёта Адам Гибсон наконец оказался на пороге своего дома и увидел через окно, что он уже шумно празднует свой день рождения в кругу близких и друзей. Но попытавшись выяснить, что за двойник у него объявился, он оказался в центре заговора сторонников клонирования...



    Продолжительность: 02:03:34
    Перевод: Дублированный, профессиональный многоголосый, авторский
    Субтитры: Русские, английские

    Файл
    Качество: BDRip (720p)
    Видео: MPEG-4 AVC, 3983 Kбит/с, 1280x534
    Аудио#1: Russian: 48 kHz, AC3, 6 ch, ~448 kbps |Дубляж, Blu-ray CEE|
    Аудио#2: Russian: 48 kHz, AC3, 6 ch, ~448 kbps |Многоголосый закадровый, Карусель|
    Аудио#3: Russian: 48 kHz, AC3, 6 ch, ~448 kbps |Многоголосый закадровый, DVD R7 (С.Р.И.)|
    Аудио#4: Russian: 48 kHz, AC3, 6 ch, ~448 kbps |Одноголосый закадровый, А. Гаврилов|
    Аудио#5: Russian: 48 kHz, AC3, 6 ch, ~448 kbps |Одноголосый закадровый, Ю. Живов|
    Аудио#6: English: 48 kHz, AC3, 6 ch, ~448 kbps

    МедиаИнфо
    Формат                                   : Matroska
    Версия формата                           : Version 2
    Размер файла                             : 5,76 Гбайт
    Продолжительность                        : 2 ч. 3 м.
    Общий поток                              : 6674 Кбит/сек
    Название фильма                          : ~V ad~
    Дата кодирования                         : UTC 2018-04-15 05:37:18
    Программа кодирования                    : mkvmerge v6.5.0 ("Isn"t she lovely") built on Oct 20 2013 12:50:05
    Библиотека кодирования                   : libebml v1.3.0 + libmatroska v1.4.1
    Обложка                                  : Yes
    Attachments                              : cover.jpg

    Видео
    Идентификатор                            : 1
    Формат                                   : AVC
    Формат/Информация                        : Advanced Video Codec
    Профиль формата                          : High@L4.1
    Настройки формата                        : CABAC / 12 Ref Frames
    Параметр CABAC формата                   : Да
    Параметр RefFrames формата               : 12 кадров
    Идентификатор кодека                     : V_MPEG4/ISO/AVC
    Продолжительность                        : 2 ч. 3 м.
    Битрейт                                  : 3983 Кбит/сек
    Ширина                                   : 1280 пикселей
    Высота                                   : 534 пикселя
    Соотношение сторон                       : 2,40:1
    Режим частоты кадров                     : Постоянный
    Частота кадров                           : 23,976 (24000/1001) кадра/сек
    Цветовое пространство                    : YUV
    Субдискретизация насыщенности            : 4:2:0
    Битовая глубина                          : 8 бит
    Тип развёртки                            : Прогрессивная
    Бит/(Пиксели*Кадры)                      : 0.243
    Размер потока                            : 3,33 Гбайт (58%)
    Заголовок                                : ~V~
    Библиотека кодирования                   : x264 core 155 r2901 7d0ff22
    Настройки программы                      : cabac=1 / ref=12 / deblock=1:-3:-3 / analyse=0x3:0x133 / me=umh / subme=11 / psy=1 / psy_rd=1.00:0.00 / mixed_ref=1 / me_range=32 / chroma_me=1 / trellis=2 / 8x8dct=1 / cqm=0 / deadzone=21,11 / fast_pskip=0 / chroma_qp_offset=-2 / threads=12 / lookahead_threads=1 / sliced_threads=0 / nr=0 / decimate=0 / interlaced=0 / bluray_compat=0 / constrained_intra=0 / bframes=11 / b_pyramid=2 / b_adapt=2 / b_bias=0 / direct=3 / weightb=1 / open_gop=0 / weightp=2 / keyint=240 / keyint_min=23 / scenecut=40 / intra_refresh=0 / rc=2pass / mbtree=0 / bitrate=3983 / ratetol=1.0 / qcomp=0.65 / qpmin=0 / qpmax=69 / qpstep=4 / cplxblur=20.0 / qblur=0.5 / ip_ratio=1.26 / pb_ratio=1.30 / aq=3:0.60
    Язык                                     : Английский
    Default                                  : Да
    Forced                                   : Нет

    Аудио #1
    Идентификатор                            : 2
    Формат                                   : AC-3
    Формат/Информация                        : Audio Coding 3
    Идентификатор кодека                     : A_AC3
    Продолжительность                        : 2 ч. 3 м.
    Вид битрейта                             : Постоянный
    Битрейт                                  : 448 Кбит/сек
    Каналы                                   : 6 каналов
    Расположение каналов                     : Front: L C R, Side: L R, LFE
    Частота                                  : 48,0 КГц
    Частота кадров                           : 31,250 кадров/сек (1536 SPF)
    Битовая глубина                          : 16 бит
    Метод сжатия                             : С потерями
    Размер потока                            : 396 Мбайт (7%)
    Заголовок                                : Dub [BD CEE]
    Язык                                     : Русский
    Service Kind                             : Complete Main
    Default                                  : Да
    Forced                                   : Нет

    Аудио #2
    Идентификатор                            : 3
    Формат                                   : AC-3
    Формат/Информация                        : Audio Coding 3
    Идентификатор кодека                     : A_AC3
    Продолжительность                        : 2 ч. 3 м.
    Вид битрейта                             : Постоянный
    Битрейт                                  : 448 Кбит/сек
    Каналы                                   : 6 каналов
    Расположение каналов                     : Front: L C R, Side: L R, LFE
    Частота                                  : 48,0 КГц
    Частота кадров                           : 31,250 кадров/сек (1536 SPF)
    Битовая глубина                          : 16 бит
    Метод сжатия                             : С потерями
    Размер потока                            : 396 Мбайт (7%)
    Заголовок                                : MVO [Карусель]
    Язык                                     : Русский
    Service Kind                             : Complete Main
    Default                                  : Нет
    Forced                                   : Нет

    Аудио #3
    Идентификатор                            : 4
    Формат                                   : AC-3
    Формат/Информация                        : Audio Coding 3
    Идентификатор кодека                     : A_AC3
    Продолжительность                        : 2 ч. 3 м.
    Вид битрейта                             : Постоянный
    Битрейт                                  : 448 Кбит/сек
    Каналы                                   : 6 каналов
    Расположение каналов                     : Front: L C R, Side: L R, LFE
    Частота                                  : 48,0 КГц
    Частота кадров                           : 31,250 кадров/сек (1536 SPF)
    Битовая глубина                          : 16 бит
    Метод сжатия                             : С потерями
    Размер потока                            : 396 Мбайт (7%)
    Заголовок                                : MVO [DVD R7]
    Язык                                     : Русский
    Service Kind                             : Complete Main
    Default                                  : Нет
    Forced                                   : Нет

    Аудио #4
    Идентификатор                            : 5
    Формат                                   : AC-3
    Формат/Информация                        : Audio Coding 3
    Идентификатор кодека                     : A_AC3
    Продолжительность                        : 2 ч. 3 м.
    Вид битрейта                             : Постоянный
    Битрейт                                  : 448 Кбит/сек
    Каналы                                   : 6 каналов
    Расположение каналов                     : Front: L C R, Side: L R, LFE
    Частота                                  : 48,0 КГц
    Частота кадров                           : 31,250 кадров/сек (1536 SPF)
    Битовая глубина                          : 16 бит
    Метод сжатия                             : С потерями
    Размер потока                            : 396 Мбайт (7%)
    Заголовок                                : AVO [А.Гарилов]
    Язык                                     : Русский
    Service Kind                             : Complete Main
    Default                                  : Нет
    Forced                                   : Нет

    Аудио #5
    Идентификатор                            : 6
    Формат                                   : AC-3
    Формат/Информация                        : Audio Coding 3
    Идентификатор кодека                     : A_AC3
    Продолжительность                        : 2 ч. 3 м.
    Вид битрейта                             : Постоянный
    Битрейт                                  : 448 Кбит/сек
    Каналы                                   : 6 каналов
    Расположение каналов                     : Front: L C R, Side: L R, LFE
    Частота                                  : 48,0 КГц
    Частота кадров                           : 31,250 кадров/сек (1536 SPF)
    Битовая глубина                          : 16 бит
    Метод сжатия                             : С потерями
    Размер потока                            : 396 Мбайт (7%)
    Заголовок                                : AVO [Ю.Живов]
    Язык                                     : Русский
    Service Kind                             : Complete Main
    Default                                  : Нет
    Forced                                   : Нет

    Аудио #6
    Идентификатор                            : 7
    Формат                                   : AC-3
    Формат/Информация                        : Audio Coding 3
    Идентификатор кодека                     : A_AC3
    Продолжительность                        : 2 ч. 3 м.
    Вид битрейта                             : Постоянный
    Битрейт                                  : 448 Кбит/сек
    Каналы                                   : 6 каналов
    Расположение каналов                     : Front: L C R, Side: L R, LFE
    Частота                                  : 48,0 КГц
    Частота кадров                           : 31,250 кадров/сек (1536 SPF)
    Битовая глубина                          : 16 бит
    Метод сжатия                             : С потерями
    Размер потока                            : 396 Мбайт (7%)
    Язык                                     : Английский
    Service Kind                             : Complete Main
    Default                                  : Нет
    Forced                                   : Нет

    Текст #1
    Идентификатор                            : 8
    Формат                                   : UTF-8
    Идентификатор кодека                     : S_TEXT/UTF8
    Идентификатор кодека/Информация          : UTF-8 Plain Text
    Язык                                     : Русский
    Default                                  : Нет
    Forced                                   : Нет

    Текст #2
    Идентификатор                            : 9
    Формат                                   : UTF-8
    Идентификатор кодека                     : S_TEXT/UTF8
    Идентификатор кодека/Информация          : UTF-8 Plain Text
    Язык                                     : Английский
    Default                                  : Нет
    Forced                                   : Нет

    Меню
    00:00:00.000                             : en:Start
    00:08:25.755                             : en:Adam Gibson
    00:15:00.107                             : en:Double X Charter
    00:18:35.656                             : en:"Let"s Test the Remote"
    00:23:12.724                             : en:Blood & Vision Test
    00:31:23.214                             : en:Repet
    00:38:44.405                             : en:Adam"s Sim-Pal
    00:45:13.085                             : en:6Th Day Violation
    00:54:19.839                             : en:Cadillac Chase
    00:58:22.874                             : en:Dr. Griffin Weir
    01:10:09.288                             : en:Seventh Precinct
    01:15:44.873                             : en:Assassins Recloned
    01:24:10.754                             : en:Cell Break
    01:33:41.490                             : en:Virtual Girlfriend
    01:41:33.378                             : en:Attempted Suicide
    01:49:20.679                             : en:Tripp the Clone Killer




    Сэмпл

    Как скачать?
    1. Качаем UTorrent версии 2.0 и выше отсюда
    2. После установки, жмем на ссылку Скачать торрент.
    3. Открываем его через utorrent.
    4. Ждем пока подключатся участники.
    5. Качаем.


    Комментарии о Шестой день / The 6th Day | BDRip 720p
    Добавлять комментарии могут только зарегистрированные пользователи

    Зарегистрироваться или Войти


    Ближайшее в кино
    • Тренер дата выхода 19 апреля 2018Тренер
      Дата выхода: 19 апреля 2018
    • 930555|Титан|19 апреля 2018|200|300Титан
      Дата выхода: 19 апреля 2018
    • 979129|Третья волна зомби|19 апреля 2018|200|300Третья волна зомби
      Дата выхода: 19 апреля 2018
    • 958501|Опасный бизнес|19 апреля 2018|200|300Опасный бизнес
      Дата выхода: 19 апреля 2018
    • 799482|Логово Монстра|19 апреля 2018|200|300Логово Монстра
      Дата выхода: 19 апреля 2018
    • 924167|Точка невозврата|19 апреля 2018|200|300Точка невозврата
      Дата выхода: 19 апреля 2018
    • 1103852|Укрась прощальное утро цветами обещания|19 апреля 2018|200|300Укрась прощальное утро цветами обещания
      Дата выхода: 19 апреля 2018
    • 845128|Я заберу твои деньги|19 апреля 2018|200|300Я заберу твои деньги
      Дата выхода: 19 апреля 2018
    • 1062316|Свинья|19 апреля 2018|200|300Свинья
      Дата выхода: 19 апреля 2018
    • 1075751|Фея|19 апреля 2018|200|300Фея
      Дата выхода: 19 апреля 2018
    • 1082597|Леонардо: Миссия Мона Лиза|19 апреля 2018|200|300Леонардо: Миссия Мона Лиза
      Дата выхода: 19 апреля 2018
    • 986511|Вествуд: Панк, икона, активист|19 апреля 2018|200|300Вествуд: Панк, икона, активист
      Дата выхода: 19 апреля 2018
    • 1047724|Привидение|26 апреля 2018|200|300Привидение
      Дата выхода: 26 апреля 2018
    • 1045590|Правда или действие|26 апреля 2018|200|300Правда или действие
      Дата выхода: 26 апреля 2018
    • 841470|Смешарики. Дежавю|26 апреля 2018|200|300Смешарики. Дежавю
      Дата выхода: 26 апреля 2018
    Вверх