• Игры для PS4
  • Игры для PS3
  • Игры для XBOX360
  • Игры для PC
  • Игры для PS2
  • Игры для PSP
  • Для телефонов
  • Музыка
  • Книги / Журналы
  • Обои
  • Опрос
    Откуда Вы о нас узнали?
      0
    • От знакомых2,1,false,300,full
    • Из социальных сетей2,2,false,300,full
    • Из поисковых систем2,3,false,300,full
    • Другое2,4,false,300,full
    Статистика
    Всего онлайн -
    Гостей -
    Пользователей -
    Короли трекера
    
    Благодарности () Закрыть
    Быстрее загружает сайты Экономит интернет—трафик Меняет оформление страницы ВК Блокирует всю рекламу на сайтах Загружает торренты как µTorrent клиент Объеденяет все твои чаты из соц. сетей в один Проигрывает твою музыку не заходя во ВКонтакте
    Новый интернет-браузер
    Оrbitum
    Скачать
    и многое другое... Подробности на сайте производителя
    Название: Пробуждая мертвецов
    Оригинальное название: Waking the Dead
    Год выпуска: 2000
    Выпущено: США, Канада, Egg Pictures, Gramercy Pictures, PolyGram Filmed Entertainment
    Жанр:  Триллер, драма, мелодрама, детектив
    Режиссер: Кит Гордон
    В ролях: Билли Крудап, Дженнифер Коннелли, Молли Паркер, Джанет МакТир, Пол Хипп, Сандра О, Хэл Холбрук, Нельсон Ландрэ, Ивонн Колл, Лоуренс Дэйн

    О фильме:
    Молодой офицер береговой охраны Филдинг Пирс встречает девушку своей мечты. Это была настоящая любовь, которая не должна была закончиться никогда.Но однажды Сара трагически погибает…Спустя несколько лет успешная карьера дала Филдингу почти все, чего он желал, кроме утраченной любви. Он жил в Чикаго с другой женщиной, только временами ему стало казаться, что Сара жива…

    Продолжительность: 01:45:12
    Перевод:  Профессиональный многоголосый, профессиональный двухголосый
    Субтитры: Русские, английские
    Навигация по главам: Есть

    Файл
    Качество: WEB-DL 1080p
    Видео: MPEG-4 AVC, 13,2 Мбит/сек, 1920x1080, 23,976 кадра/сек
    Аудио #1: AC3, 6 ch,  384 Кбит/сек | Русский, профессиональный (двухголосый закадровый) West Video
    Аудио #2: AC3, 2 ch, 192 Кбит/сек | Русский, профессиональный (многоголосый закадровый) Первый канал
    Аудио #3: EAC3, 6 ch, 640 Кбит/сек | Английский, оригинал



    Скриншоты
    [screen]http://img12.lostpic.net/2018/04/15/8cb9a8ee4e0fc7f1c9184051e51ace55.png[/screen][screen]http://img12.lostpic.net/2018/04/15/12624283e1bd403fd19e88cc60f511ee.png[/screen][screen]http://img12.lostpic.net/2018/04/15/1ccd3d50bb076c2cc3816c3046f4bbf2.png[/screen][screen]http://img12.lostpic.net/2018/04/15/62e171c849d011aa903c1f0625bed380.png[/screen][screen]http://img12.lostpic.net/2018/04/15/607604caa719ef9de8490449945d147f.png[/screen][screen]http://img12.lostpic.net/2018/04/15/47418d2121f25759cdb4531c7620425b.png[/screen][screen]http://img12.lostpic.net/2018/04/15/c121dc64e45fe009ce412a0c567b0e68.png[/screen][screen]http://img12.lostpic.net/2018/04/15/14ce897dd6ea0704ede040af60872130.png[/screen]Свернуть


    Инфо-файл
    Общее
    Уникальный идентификатор                 : 247046935409802404400860416853977076520 (0xB9DB8251975C9DAE95152E1796D01328)
    Полное имя                               : Пробуждая.мертвецов.2000.WEB-DL.1080p.mkv
    Формат                                   : Matroska
    Версия формата                           : Version 2
    Размер файла                             : 10,8 Гбайт
    Продолжительность                        : 1 ч. 45 м.
    Режим общего битрейта                    : Переменный
    Общий поток                              : 14,8 Мбит/сек
    Дата кодирования                         : UTC 2018-04-15 07:28:59
    Программа кодирования                    : mkvmerge v5.8.0 ("No Sleep / Pillow") built on Sep  2 2012 15:37:04
    Библиотека кодирования                   : libebml v1.2.3 + libmatroska v1.3.0

    Видео
    Идентификатор                            : 1
    Формат                                   : AVC
    Формат/Информация                        : Advanced Video Codec
    Профиль формата                          : High@L4
    Настройки формата                        : CABAC / 4 Ref Frames
    Параметр CABAC формата                   : Да
    Параметр RefFrames формата               : 4 кадра
    Идентификатор кодека                     : V_MPEG4/ISO/AVC
    Продолжительность                        : 1 ч. 45 м.
    Вид битрейта                             : Переменный
    Битрейт                                  : 13,2 Мбит/сек
    Максимальный битрейт                     : 15,0 Мбит/сек
    Ширина                                   : 1920 пикселей
    Высота                                   : 1080 пикселей
    Соотношение сторон                       : 16:9
    Режим частоты кадров                     : Постоянный
    Частота кадров                           : 23,976 (24000/1001) кадра/сек
    Цветовое пространство                    : YUV
    Субдискретизация насыщенности            : 4:2:0
    Битовая глубина                          : 8 бит
    Тип развёртки                            : Прогрессивная
    Бит/(Пиксели*Кадры)                      : 0.266
    Размер потока                            : 9,73 Гбайт (90%)
    Язык                                     : English
    Default                                  : Да
    Forced                                   : Нет
    Цветовой диапазон                        : Limited
    Основные цвета                           : BT.709
    Характеристики трансфера                 : BT.709
    Коэффициенты матрицы                     : BT.709

    Аудио #1
    Идентификатор                            : 2
    Формат                                   : AC-3
    Формат/Информация                        : Audio Coding 3
    Идентификатор кодека                     : A_AC3
    Продолжительность                        : 1 ч. 45 м.
    Вид битрейта                             : Постоянный
    Битрейт                                  : 384 Кбит/сек
    Каналы                                   : 6 каналов
    Расположение каналов                     : Front: L C R, Side: L R, LFE
    Частота                                  : 48,0 КГц
    Частота кадров                           : 31,250 кадров/сек (1536 SPF)
    Битовая глубина                          : 16 бит
    Метод сжатия                             : С потерями
    Размер потока                            : 289 Мбайт (3%)
    Заголовок                                : DVO | West Video
    Язык                                     : Russian
    По умолчанию                             : Да
    Принудительно                            : Нет

    Аудио #2
    Идентификатор                            : 3
    Формат                                   : AC-3
    Формат/Информация                        : Audio Coding 3
    Идентификатор кодека                     : A_AC3
    Продолжительность                        : 1 ч. 45 м.
    Вид битрейта                             : Постоянный
    Битрейт                                  : 192 Кбит/сек
    Каналы                                   : 2 канала
    Расположение каналов                     : Front: L R
    Частота                                  : 48,0 КГц
    Частота кадров                           : 31,250 кадров/сек (1536 SPF)
    Битовая глубина                          : 16 бит
    Метод сжатия                             : С потерями
    Размер потока                            : 144 Мбайт (1%)
    Заголовок                                : MVO | Первый канал
    Язык                                     : Russian
    По умолчанию                             : Нет
    Принудительно                            : Нет

    Аудио #3
    Идентификатор                            : 4
    Формат                                   : E-AC-3
    Формат/Информация                        : Enhanced Audio Coding 3
    Идентификатор кодека                     : A_EAC3
    Продолжительность                        : 1 ч. 45 м.
    Вид битрейта                             : Постоянный
    Битрейт                                  : 640 Кбит/сек
    Каналы                                   : 6 каналов
    Расположение каналов                     : Front: L C R, Side: L R, LFE
    Частота                                  : 48,0 КГц
    Частота кадров                           : 187,500 кадров/сек (256 SPF)
    Метод сжатия                             : С потерями
    Задержка видео                           : 21 мс.
    Размер потока                            : 482 Мбайт (4%)
    Заголовок                                : Original
    Язык                                     : English
    По умолчанию                             : Нет
    Принудительно                            : Нет

    Текст #1
    Идентификатор                            : 5
    Формат                                   : UTF-8
    Идентификатор кодека                     : S_TEXT/UTF8
    Идентификатор кодека/Информация          : UTF-8 Plain Text
    Язык                                     : Russian
    По умолчанию                             : Нет
    Принудительно                            : Нет

    Текст #2
    Идентификатор                            : 6
    Формат                                   : UTF-8
    Идентификатор кодека                     : S_TEXT/UTF8
    Идентификатор кодека/Информация          : UTF-8 Plain Text
    Язык                                     : English
    По умолчанию                             : Нет
    Принудительно                            : Нет

    Текст #3
    Идентификатор                            : 7
    Формат                                   : UTF-8
    Идентификатор кодека                     : S_TEXT/UTF8
    Идентификатор кодека/Информация          : UTF-8 Plain Text
    Заголовок                                : SDH
    Язык                                     : English
    По умолчанию                             : Нет
    Принудительно                            : Нет

    Меню
    00:00:00.000                             : en:Opening Credits
    00:02:03.480                             : en:Sudden Terror
    00:03:36.480                             : en:Mornin" Private
    00:07:39.480                             : en:Topic of Conversation
    00:15:30.480                             : en:Offer of a Lifetime
    00:19:02.480                             : en:...and so it Begins
    00:21:19.480                             : en:Love Letters
    00:24:38.480                             : en:The Campaign Challenge
    00:27:50.480                             : en:Heart to Heart
    00:32:46.480                             : en:Going to Chicago
    00:37:44.480                             : en:1983 - The Campaign Trail
    00:39:44.480                             : en:1793 - Contrasts
    00:50:09.480                             : en:Two Weeks in Chile
    00:53:10.480                             : en:Sightings and Sanctuary
    00:59:43.480                             : en:Breaking Bread
    01:02:41.480                             : en:Final Journey
    01:08:35.480                             : en:Work Harder
    01:13:43.480                             : en:Contact
    01:17:33.480                             : en:Searching for Answers
    01:21:34.480                             : en:Victory Speech
    01:28:35.480                             : en:Apologies
    01:36:45.480                             : en:Keep Fighting
    01:40:29.480                             : en:Closing CreditsСвернуть


    Дополнительная информация
    • Исходник видео WEB-DL Amazon.Свернуть


    Сборка: [img]http://i1.imageban.ru/out/2018/02/13/db08a675822da337df05f97bda2ce544.gif[/img]
    Похожие раздачи Искать похожие
    Инструкция по скачиванию
     1  Качаем uTorrent версии 2.0 и выше
     2  После установки, жмем выше под постером на ссылку Скачать [MediaGet] или Скачать .torrent
     3  Открываем скачанный файл через соответствующий клиент: MediaGet или uTorrent
     4  Ждем пока подключатся участники
     5  Качаем
    Комментарии о  Пробуждая мертвецов / Waking the Dead | WEB-DL 1080p 
    Ближайшее в кино
    Вверх