• Игры для PS4
  • Игры для PS3
  • Игры для XBOX360
  • Игры для PC
  • Игры для PS2
  • Игры для PSP
  • Для телефонов
  • Музыка
  • Книги/Журналы
  • Обои
  •  
    Опрос
    Удобен ли сайт в использовании?
      0
    • Очень удобен, все понятно1,1,false,300,full
    • Удобен1,2,false,300,full
    • Средне1,3,false,300,full
    • Неудобен, трудно ориентироваться1,4,false,300,full
    • Совсем неудобен1,5,false,300,full
    Статистика
    Загрузка...
    Ужастики / Goosebumps | WEB-DL
    Статус  Проверено
    В закладки
    Модератор: Max

    Ужастики / Goosebumps | WEB-DL [Фильмы 2015] скачать торрентом/torrent бесплатно

    Год выхода
    Язык
    Закачал
    Аноним | 15 апреля в 12ч 36м 41с
    Раздел
    Отзывов
    0
    Раздают: 6 Качают: 0 Скачали: 54 Размер: 20.37 GB
    Инфо о раздаче | Благодарности |
    0/5
    0
    0 5 0
    Поддержи нас — расскажи друзьям!
    Orbitum
    Новый интернет-браузер Быстрее загружает сайты Экономит интернет—трафик Меняет оформление страницы ВК Блокирует всю рекламу на сайтах Загружает торренты как

    µTorrent

    клиент
    Объеденяет все твои чаты из соц. сетей в один Проигрывает твою музыку не заходя во ВКонтакте
    Скачать и многое другое... Подробности на сайте производителя
    Информация о фильме
    Название: Ужастики
    Оригинальное название: Goosebumps
    Год выхода: 2015
    Жанр: Фэнтези, комедия, приключения
    Режиссер: Роб Леттерман
    В ролях: Дилан Миннетт, Одейя Раш, Эми Райан, Райан Ли, Джиллиан Белл, Джек Блэк, Кен Марино, Холстон Сейдж, Стивен Крюгер, Кит А. Болден, Аманда Ланд, Тимоти С. Саймонс, Каран Сони, Р.Л. Стайн, Калеб Эмери, Габриэла Фрайле, Нэйт Андраде, Шелдон Браун, Мелисса Брюэр, Маршалл Чока

    О фильме:
    Зак переезжает с родителями в провинциальный городок, где знакомится с очаровательной соседкой Ханной. Он узнает, что ее отец — Роберт Стайн, знаменитый писатель, автор популярной серии триллеров для подростков «Ужастики», у которого есть мрачная тайна. Стайн — пленник собственных историй: монстры из его произведений вполне реальны, и он пишет свои книги для того, чтобы запереть чудовищ на их страницах, защищая своих читателей. По случайному стечению обстоятельств Зак выпускает монстров на волю…



    Страна: США, Австралия
    Студия: Columbia Pictures, LStar Capital, Original Film
    Продолжительность: 01:43:16
    Перевод: Дублированный

    Файл
    Кодек: H.265
    Качество: WEB-DL 2160p
    Видео: MPEG-H HEVC HDR, 25.0 Mбит/с, 3840x1600, 23.976 кадр/с
    Звук:
    Русский (AC3, 6 ch, 640 Кбит/с) / Дубляж, Blu-ray CEE
    Украинский (AC3, 6 ch, 448 Кбит/с) / Дубляж, Blu-ray CEE
    Английский (DTS-HD MA, 6 ch, 2192 Кбит/с)
    Субтитры: Русские (форсированные, полные), украинские (форсированные, полные), английские

    Семпл

    MI
    General
    Unique ID                                : 56853972061433370376877059405458853748 (0x2AC5AD3DDA492D4821F316691C6A4F74)
    Complete name                            : D:uTorrentUzhastiki.2015.WEB-DL.AMZN.2160p.HDR.MediaClub.mkv
    Format                                   : Matroska
    Format version                           : Version 4 / Version 2
    File size                                : 20.4 GiB
    Duration                                 : 1 h 43 min
    Overall bit rate                         : 28.2 Mb/s
    Encoded date                             : UTC 2018-04-15 07:22:29
    Writing application                      : mkvmerge v19.0.0 ("Brave Captain") 64-bit
    Writing library                          : libebml v1.3.5 + libmatroska v1.4.8
    Cover                                    : Yes
    Attachments                              : cover.jpg

    Video
    ID                                       : 1
    Format                                   : HEVC
    Format/Info                              : High Efficiency Video Coding
    Commercial name                          : HDR10
    Format profile                           : Main 10@L5@Main
    Codec ID                                 : V_MPEGH/ISO/HEVC
    Duration                                 : 1 h 43 min
    Bit rate                                 : 25.0 Mb/s
    Width                                    : 3 840 pixels
    Height                                   : 1 600 pixels
    Display aspect ratio                     : 2.40:1
    Frame rate mode                          : Constant
    Frame rate                               : 23.976 (24000/1001) FPS
    Color space                              : YUV
    Chroma subsampling                       : 4:2:0
    Bit depth                                : 10 bits
    Bits/(Pixel*Frame)                       : 0.169
    Stream size                              : 18.0 GiB (88%)
    Title                                    : WEB-DL.2160p.HDR by Silverok
    Default                                  : Yes
    Forced                                   : No
    Color range                              : Limited
    Color primaries                          : BT.2020
    Transfer characteristics                 : PQ
    Matrix coefficients                      : BT.2020 non-constant
    Mastering display color primaries        : BT.709
    Mastering display luminance              : min: 0.0050 cd/m2, max: 1000 cd/m2

    Audio #1
    ID                                       : 2
    Format                                   : AC-3
    Format/Info                              : Audio Coding 3
    Codec ID                                 : A_AC3
    Duration                                 : 1 h 43 min
    Bit rate mode                            : Constant
    Bit rate                                 : 640 kb/s
    Channel(s)                               : 6 channels
    Channel positions                        : Front: L C R, Side: L R, LFE
    Sampling rate                            : 48.0 kHz
    Frame rate                               : 31.250 FPS (1536 SPF)
    Bit depth                                : 16 bits
    Compression mode                         : Lossy
    Stream size                              : 473 MiB (2%)
    Title                                    : Дубляж, Blu-ray CEE
    Language                                 : Russian
    Service kind                             : Complete Main
    Default                                  : Yes
    Forced                                   : No

    Audio #2
    ID                                       : 3
    Format                                   : AC-3
    Format/Info                              : Audio Coding 3
    Codec ID                                 : A_AC3
    Duration                                 : 1 h 43 min
    Bit rate mode                            : Constant
    Bit rate                                 : 448 kb/s
    Channel(s)                               : 6 channels
    Channel positions                        : Front: L C R, Side: L R, LFE
    Sampling rate                            : 48.0 kHz
    Frame rate                               : 31.250 FPS (1536 SPF)
    Bit depth                                : 16 bits
    Compression mode                         : Lossy
    Stream size                              : 331 MiB (2%)
    Title                                    : Дубляж, Blu-ray CEE
    Language                                 : Ukrainian
    Service kind                             : Complete Main
    Default                                  : No
    Forced                                   : No

    Audio #3
    ID                                       : 4
    Format                                   : DTS
    Format/Info                              : Digital Theater Systems
    Format profile                           : MA / Core
    Codec ID                                 : A_DTS
    Duration                                 : 1 h 43 min
    Bit rate mode                            : Variable / Constant
    Bit rate                                 : 2 192 kb/s / 1 509 kb/s
    Channel(s)                               : 6 channels
    Channel positions                        : Front: L C R, Side: L R, LFE
    Sampling rate                            : 48.0 kHz
    Frame rate                               : 93.750 FPS (512 SPF)
    Bit depth                                : 16 bits
    Compression mode                         : Lossless / Lossy
    Stream size                              : 1.58 GiB (8%)
    Language                                 : English
    Default                                  : No
    Forced                                   : No

    Text #1
    ID                                       : 5
    Format                                   : UTF-8
    Codec ID                                 : S_TEXT/UTF8
    Codec ID/Info                            : UTF-8 Plain Text
    Duration                                 : 1 h 33 min
    Bit rate                                 : 1 b/s
    Count of elements                        : 20
    Stream size                              : 796 Bytes (0%)
    Title                                    : Forced
    Language                                 : Russian
    Default                                  : Yes
    Forced                                   : Yes

    Text #2
    ID                                       : 6
    Format                                   : UTF-8
    Codec ID                                 : S_TEXT/UTF8
    Codec ID/Info                            : UTF-8 Plain Text
    Duration                                 : 1 h 34 min
    Bit rate                                 : 91 b/s
    Count of elements                        : 1229
    Stream size                              : 63.2 KiB (0%)
    Title                                    : Full
    Language                                 : Russian
    Default                                  : No
    Forced                                   : No

    Text #3
    ID                                       : 7
    Format                                   : UTF-8
    Codec ID                                 : S_TEXT/UTF8
    Codec ID/Info                            : UTF-8 Plain Text
    Duration                                 : 1 h 33 min
    Bit rate                                 : 1 b/s
    Count of elements                        : 20
    Stream size                              : 778 Bytes (0%)
    Title                                    : Forced
    Language                                 : Ukrainian
    Default                                  : No
    Forced                                   : No

    Text #4
    ID                                       : 8
    Format                                   : UTF-8
    Codec ID                                 : S_TEXT/UTF8
    Codec ID/Info                            : UTF-8 Plain Text
    Duration                                 : 1 h 34 min
    Bit rate                                 : 90 b/s
    Count of elements                        : 1221
    Stream size                              : 62.3 KiB (0%)
    Title                                    : Full
    Language                                 : Ukrainian
    Default                                  : No
    Forced                                   : No

    Text #5
    ID                                       : 9
    Format                                   : UTF-8
    Codec ID                                 : S_TEXT/UTF8
    Codec ID/Info                            : UTF-8 Plain Text
    Duration                                 : 1 h 33 min
    Bit rate                                 : 58 b/s
    Count of elements                        : 1193
    Stream size                              : 39.9 KiB (0%)
    Language                                 : English
    Default                                  : No
    Forced                                   : No


    Скриншоты
    [img]http://img12.lostpic.net/2018/04/15/5f4f110144917e993a9c189b16bdb9f4.jpg[/img][img]http://img12.lostpic.net/2018/04/15/24d2e4bc91c8ae20908a7a639e9a3906.jpg[/img][img]http://img12.lostpic.net/2018/04/15/cdc8a1e4a7f4b6f74b8df201275f9696.jpg[/img][img]http://img12.lostpic.net/2018/04/15/d189a3aec297cd4a52cd73994a626b9e.jpg[/img][img]http://img12.lostpic.net/2018/04/15/d0d212a1bd5291d2daecb1378253ad16.jpg[/img][img]http://img12.lostpic.net/2018/04/15/c3349adbefc307fcdc0838f2ad27e2f8.jpg[/img]
    Еще похожие »

    Как скачать?
    1. Качаем UTorrent версии 2.0 и выше отсюда
    2. После установки, жмем на ссылку Скачать торрент.
    3. Открываем его через utorrent.
    4. Ждем пока подключатся участники.
    5. Качаем.


    Комментарии о Ужастики / Goosebumps | WEB-DL
    Добавлять комментарии могут только зарегистрированные пользователи

    Зарегистрироваться или Войти


    Ближайшее в кино
    • Клуб миллиардеров дата выхода 19 июля 2018Клуб миллиардеров
      Дата выхода: 19 июля 2018
    • 848004|Паранормальное|19 июля 2018|200|300Паранормальное
      Дата выхода: 19 июля 2018
    • 993589|Килиманджара|19 июля 2018|200|300Килиманджара
      Дата выхода: 19 июля 2018
    • 1002560|Зои|19 июля 2018|200|300Зои
      Дата выхода: 19 июля 2018
    • 1025011|Офисный беспредел|19 июля 2018|200|300Офисный беспредел
      Дата выхода: 19 июля 2018
    • 1024435|Это чертово сердце|19 июля 2018|200|300Это чертово сердце
      Дата выхода: 19 июля 2018
    • 1169286|МУЛЬТ в кино. Выпуск №78. Наше лето!|21 июля 2018|200|300МУЛЬТ в кино. Выпуск №78. Наше лето!
      Дата выхода: 21 июля 2018
    • 926540|Миссия невыполнима: Последствия|26 июля 2018|200|300Миссия невыполнима: Последствия
      Дата выхода: 26 июля 2018
    • 992614|Обитатели|26 июля 2018|200|300Обитатели
      Дата выхода: 26 июля 2018
    • 854458|Белль и Себастьян: Приключения продолжаются|26 июля 2018|200|300Белль и Себастьян: Приключения продолжаются
      Дата выхода: 26 июля 2018
    • 1049478|Убежище дьявола|26 июля 2018|200|300Убежище дьявола
      Дата выхода: 26 июля 2018
    • 1008732|Мектуб, моя любовь|26 июля 2018|200|300Мектуб, моя любовь
      Дата выхода: 26 июля 2018
    • 1049447|Юные титаны, вперед!|26 июля 2018|200|300Юные титаны, вперед!
      Дата выхода: 26 июля 2018
    • 1067608|Свидетели|26 июля 2018|200|300Свидетели
      Дата выхода: 26 июля 2018
    • 933307|Опасная игра Слоун|2 августа 2018|200|300Опасная игра Слоун
      Дата выхода: 2 августа 2018
    Вверх