• Игры для PS4
  • Игры для PS3
  • Игры для XBOX360
  • Игры для PC
  • Игры для PS2
  • Игры для PSP
  • Для телефонов
  • Музыка
  • Книги/Журналы
  • Обои
  •  
    Опрос
    Откуда Вы о нас узнали?
      0
    • От знакомых2,1,false,300,full
    • Из социальных сетей2,2,false,300,full
    • Из поисковых систем2,3,false,300,full
    • Другое2,4,false,300,full
    Статистика
    Загрузка...
    Токийский Гуль ТВ-1 / Tokyo Ghoul TV-1 [Сезон 01] | HDTVRip 720p
    Статус  Проверено
    В закладки
    Модератор: Max

    Токийский Гуль ТВ-1 / Tokyo Ghoul TV-1 [Сезон 01] | HDTVRip 720p [Сериалы 2014] скачать торрентом/torrent бесплатно

    Год выхода
    Категории
    Язык
    Закачал
    Аноним | 15 апреля в 12ч 54м 52с
    Раздел
    Отзывов
    0
    Раздают: 7 Качают: 0 Скачали: 13 Размер: 4.51 GB
    Инфо о раздаче | Благодарности |
    0/5
    0
    0 5 0
    Поддержи нас — расскажи друзьям!
    Orbitum
    Новый интернет-браузер Быстрее загружает сайты Экономит интернет—трафик Меняет оформление страницы ВК Блокирует всю рекламу на сайтах Загружает торренты как

    µTorrent

    клиент
    Объеденяет все твои чаты из соц. сетей в один Проигрывает твою музыку не заходя во ВКонтакте
    Скачать и многое другое... Подробности на сайте производителя
    Информация о фильме
    Название: Токийский Гуль
    Оригинальное название: Tokyo Ghoul
    Год выхода: 2014
    Жанр: мистика, драма, ужасы
    Режиссер: Морита Сюхэй
    Художник: Нагай Кэйсукэ, Муто Масатоси
    В ролях: Ханаэ Нацуки, Амамия Сора, Ханадзава Кана, Тоёнага Тосиюки, Асанума Синтаро, Суго Такаюки, Кониси Кацуюки, Морохоси Сумирэ, Мияно Мамору, Окава Тору, Накамура Юйти, Сакурай Такахиро, Такагаки Аяхи, Ниси Ринтаро, Кадзи Юки, Кугимия Риэ, Ито Кэнтаро, Накано Ютака, Уэда Юдзи, Цуда Кэндзиро
    О фильме:
    Раса гулей существует с незапамятных времен. Ее представители вовсе не против людей, они их даже любят – преимущественно в сыром виде. Любители человечины внешне неотличимы от нас, сильны, быстры и живучи – но их мало, потому гули выработали строгие правила охоты и маскировки, а нарушителей наказывают сами или по-тихому сдают борцам с нечистью. В век науки люди знают про гулей, но как говорится, привыкли. Власти не считают людоедов угрозой, более того, рассматривают их как идеальную основу для создания суперсолдат. Эксперименты идут уже давно…
    Ничего этого не ведал Кэн Канэки, робкий и невзрачный токийский первокурсник, безнадежно влюбленный в красавицу-интеллектуалку Ризэ, частую гостью в кафе «Место встречи», где парень подрабатывает официантом. Не думал Кэн, что скоро самому придется стать гулем, и многие знакомые предстанут в неожиданном свете. Главному герою предстоит мучительный поиск нового пути, ибо он понял, что люди и гули похожи: просто одни друг друга жрут в прямом смысле, другие – в переносном. Правда жизни жестока, переделать ее нельзя, и силен тот, кто не отворачивается. А дальше уж как-нибудь!

    [img]http://s019.radikal.ru/i622/1702/d7/eada0eaecb30.gif[/img]
    World Art | MAL

    Страна: Япония
    Студия: Studio Pierrot
    Продолжительность: 00:24:30
    Язык: Русский, Японский
    Перевод: Любительский (многоголосый, закадровый), Любительский (двухголосый, закадровый)

    Файл
    Качество: HDTVRip
    Формат: MKV
    Кодек: H.264
    Аудио кодек: AAC
    Видео: 1280x720, 23.976 fps, 1500 kbps
    Аудио RUS: 48.0 kHz, AAC, 2 ch, 192 kbps - Студия KANSAI
    Аудио RUS: 48.0 kHz, AAC, 2 ch, 192 kbps - AniDub
    Аудио RUS: 48.0 kHz, AAC, 2 ch, 192 kbps - AniLibria
    Аудио JAP: 48.0 kHz, AAC, 2 ch, 192 kbps
    Субтитры: русские (встроенные полный перевод, ASS) - Anku & mutagenb
    Субтитры: русские (встроенные полный перевод, ASS) - Amanri & Nachtwandler
    Субтитры: русские (встроенные полный перевод, ASS) - Firegorn Team
    Субтитры: русские (встроенные полный перевод, ASS) - AniLibria

    Озвучка

    Озвучивание: JAM, Oriko
    Перевод: Jeka
    Тайминг и работа со звуком: Deven, SuNRiZ

    Озвучивание: Lupin, Manaoki, Metacarmex, Silv, Say
    Перевод: Locheed
    Тайминг и работа со звуком: Baka!Baka!, Хидеки




    Список серий
    01. Трагедия
    02. Инкубация
    03. В новый мир
    04. Ужин
    05. Шрам
    06. Ливень
    07. Захват
    08. Донос
    09. Клетка
    10. Аогири
    11. Боевой дух
    12. Упырь


    MediaInfo
    General
    Format : Matroska
    Format version : Version 4 / Version 2
    File size : 387 MiB
    Duration : 24 min
    Overall bit rate : 2 203 kb/s
    Encoded date : UTC 2018-04-13 16:09:07
    Writing application : mkvmerge v8.3.0 ("Over the Horizon") 64bit
    Writing library : libebml v1.3.1 + libmatroska v1.4.2

    Video
    ID : 1
    Format : AVC
    Format/Info : Advanced Video Codec
    Format profile : High@L4.1
    Format settings, CABAC : Yes
    Format settings, ReFrames : 4 frames
    Codec ID : V_MPEG4/ISO/AVC
    Duration : 24 min
    Bit rate : 1 413 kb/s
    Width : 1 280 pixels
    Height : 720 pixels
    Display aspect ratio : 16:9
    Frame rate mode : Constant
    Frame rate : 23.976 (24000/1001) FPS
    Color space : YUV
    Chroma subsampling : 4:2:0
    Bit depth : 8 bits
    Scan type : Progressive
    Bits/(Pixel*Frame) : 0.064
    Stream size : 248 MiB (64%)
    Writing library : x264 core 142 r2431+42 c69a006 tMod [8-bit@4:2:0 X86]
    Encoding settings : cabac=1 / ref=3 / deblock=1:0:0 / analyse=0x3:0x113 / me=hex / subme=7 / psy=1 / fade_compensate=0.00 / psy_rd=1.00:0.00 / mixed_ref=1 / me_range=16 / chroma_me=1 / trellis=1 / 8x8dct=1 / cqm=0 / deadzone=21,11 / fast_pskip=1 / chroma_qp_offset=-2 / threads=8 / lookahead_threads=1 / sliced_threads=0 / nr=0 / decimate=1 / interlaced=0 / bluray_compat=0 / constrained_intra=0 / fgo=0 / bframes=16 / b_pyramid=2 / b_adapt=1 / b_bias=0 / direct=1 / weightb=1 / open_gop=0 / weightp=2 / keyint=240 / keyint_min=1 / scenecut=40 / intra_refresh=0 / rc_lookahead=40 / rc=crf / mbtree=1 / crf=20.0000 / qcomp=0.60 / qpmin=0:0:0 / qpmax=69:69:69 / qpstep=4 / ip_ratio=1.40 / aq=1:1.00 / aq-sensitivity=10.00 / aq-factor=1.00:1.00:1.00 / aq2=0 / aq3=0
    Default : Yes
    Forced : No
    Color range : Limited
    Color primaries : BT.709
    Transfer characteristics : BT.709
    Matrix coefficients : BT.709

    Audio #1
    ID : 2
    Format : AAC
    Format/Info : Advanced Audio Codec
    Format profile : LC
    Codec ID : A_AAC
    Duration : 24 min
    Bit rate : 192 kb/s
    Channel(s) : 2 channels
    Channel positions : Front: L R
    Sampling rate : 48.0 kHz
    Frame rate : 46.875 FPS (1024 spf)
    Compression mode : Lossy
    Stream size : 33.6 MiB (9%)
    Title : KANSAI
    Language : Russian
    Default : Yes
    Forced : No

    Audio #2
    ID : 3
    Format : AAC
    Format/Info : Advanced Audio Codec
    Format profile : LC
    Codec ID : A_AAC
    Duration : 24 min
    Bit rate : 165 kb/s
    Channel(s) : 2 channels
    Channel positions : Front: L R
    Sampling rate : 48.0 kHz
    Frame rate : 46.875 FPS (1024 spf)
    Compression mode : Lossy
    Stream size : 29.0 MiB (7%)
    Title : AniDub
    Language : Russian
    Default : No
    Forced : No

    Audio #3
    ID : 4
    Format : AAC
    Format/Info : Advanced Audio Codec
    Format profile : LC
    Codec ID : A_AAC
    Duration : 24 min
    Bit rate : 224 kb/s
    Channel(s) : 2 channels
    Channel positions : Front: L R
    Sampling rate : 48.0 kHz
    Frame rate : 46.875 FPS (1024 spf)
    Compression mode : Lossy
    Stream size : 39.3 MiB (10%)
    Title : AniLibria
    Language : Russian
    Default : No
    Forced : No

    Audio #4
    ID : 5
    Format : AAC
    Format/Info : Advanced Audio Codec
    Format profile : LC
    Codec ID : A_AAC
    Duration : 24 min
    Bit rate : 205 kb/s
    Channel(s) : 2 channels
    Channel positions : Front: L R
    Sampling rate : 48.0 kHz
    Frame rate : 46.875 FPS (1024 spf)
    Compression mode : Lossy
    Stream size : 36.0 MiB (9%)
    Title : Original
    Language : Japanese
    Default : No
    Forced : No

    Text #1
    ID : 6
    Format : ASS
    Codec ID : S_TEXT/ASS
    Codec ID/Info : Advanced Sub Station Alpha
    Duration : 24 min
    Bit rate : 130 b/s
    Count of elements : 326
    Compression mode : Lossless
    Stream size : 23.4 KiB (0%)
    Title : Полные субтитры - Anku & mutagenb
    Language : Russian
    Default : Yes
    Forced : No

    Text #2
    ID : 7
    Format : ASS
    Codec ID : S_TEXT/ASS
    Codec ID/Info : Advanced Sub Station Alpha
    Duration : 24 min
    Bit rate : 161 b/s
    Count of elements : 391
    Compression mode : Lossless
    Stream size : 29.0 KiB (0%)
    Title : Полные субтитры - Amanri & Nachtwandler
    Language : Russian
    Default : No
    Forced : No

    Text #3
    ID : 8
    Format : ASS
    Codec ID : S_TEXT/ASS
    Codec ID/Info : Advanced Sub Station Alpha
    Duration : 24 min
    Bit rate : 155 b/s
    Count of elements : 344
    Compression mode : Lossless
    Stream size : 27.9 KiB (0%)
    Title : Полные субтитры - Firegorn Team
    Language : Russian
    Default : No
    Forced : No

    Text #4
    ID : 9
    Format : ASS
    Codec ID : S_TEXT/ASS
    Codec ID/Info : Advanced Sub Station Alpha
    Duration : 24 min
    Bit rate : 152 b/s
    Count of elements : 361
    Compression mode : Lossless
    Stream size : 27.3 KiB (0%)
    Title : Полные субтитры - AniLibria
    Language : Russian
    Default : No
    Forced : No
    Еще похожие »

    Как скачать?
    1. Качаем UTorrent версии 2.0 и выше отсюда
    2. После установки, жмем на ссылку Скачать торрент.
    3. Открываем его через utorrent.
    4. Ждем пока подключатся участники.
    5. Качаем.


    Комментарии о Токийский Гуль ТВ-1 / Tokyo Ghoul TV-1 [Сезон 01] | HDTVRip 720p
    Добавлять комментарии могут только зарегистрированные пользователи

    Зарегистрироваться или Войти


    Ближайшее в кино
    • МУЛЬТ в кино. Выпуск №80. Время открытий дата выхода 15 сентября 2018МУЛЬТ в кино. Выпуск №80. Время открытий
      Дата выхода: 15 сентября 2018
    • 40783|Трудно быть Богом|20 сентября 2018|200|300Трудно быть Богом
      Дата выхода: 20 сентября 2018
    • 463858|Лондонские поля|20 сентября 2018|200|300Лондонские поля
      Дата выхода: 20 сентября 2018
    • 991225|Проклятие монахини|20 сентября 2018|200|300Проклятие монахини
      Дата выхода: 20 сентября 2018
    • 46671|Мой друг Иван Лапшин|20 сентября 2018|200|300Мой друг Иван Лапшин
      Дата выхода: 20 сентября 2018
    • 43332|Проверка на дорогах|20 сентября 2018|200|300Проверка на дорогах
      Дата выхода: 20 сентября 2018
    • 44339|Двадцать дней без войны|20 сентября 2018|200|300Двадцать дней без войны
      Дата выхода: 20 сентября 2018
    • 1068627|Простая просьба|20 сентября 2018|200|300Простая просьба
      Дата выхода: 20 сентября 2018
    • 987695|Бои без правил|20 сентября 2018|200|300Бои без правил
      Дата выхода: 20 сентября 2018
    • 1045478|Агент Джонни Инглиш 3.0|20 сентября 2018|200|300Агент Джонни Инглиш 3.0
      Дата выхода: 20 сентября 2018
    • 1047742|Доминика|20 сентября 2018|200|300Доминика
      Дата выхода: 20 сентября 2018
    • 1031263|Храброе сердце. Заговор в королевстве|20 сентября 2018|200|300Храброе сердце. Заговор в королевстве
      Дата выхода: 20 сентября 2018
    • 1025397|Закону тут не место|20 сентября 2018|200|300Закону тут не место
      Дата выхода: 20 сентября 2018
    • 1111982|Панды 3D|20 сентября 2018|200|300Панды 3D
      Дата выхода: 20 сентября 2018
    • 1115405|Мария до Каллас|20 сентября 2018|200|300Мария до Каллас
      Дата выхода: 20 сентября 2018
    Вверх