• Игры для PS4
  • Игры для PS3
  • Игры для XBOX360
  • Игры для PC
  • Игры для PS2
  • Игры для PSP
  • Для телефонов
  • Музыка
  • Книги / Журналы
  • Обои
  • Опрос
    Откуда Вы о нас узнали?
      0
    • От знакомых2,1,false,300,full
    • Из социальных сетей2,2,false,300,full
    • Из поисковых систем2,3,false,300,full
    • Другое2,4,false,300,full
    Статистика
    Всего онлайн -
    Гостей -
    Пользователей -
    Короли трекера
    Благодарности () Закрыть
    Информация о фильме
    Название: Последняя кинозвезда
    Оригинальное название: The Last Movie Star
    Год выхода: 2017
    Жанр: Драма
    Режиссер: Адам Рифкин
    В ролях: Бёрт Рейнолдс, Ариэль Уинтер, Кларк Дьюк, Эллар Колтрейн, Никки Блонски, Чеви Чейз, Кэтлин Нолан, Эл-Джэлил Нокс, Шелли Уоггенер, Тодд Виттум

    О фильме:
    Вик Эдвард — кинозвезда на закате своей славы. Его лучшие годы прошли, роли измельчали, а сам он уже давно списан индустрией. Вик ностальгирует о былых временах своей молодости, когда он купался в любви поклонников. А теперь он стал старым и никому не нужным актером, прозябающим на задворках Голливуда. «Последняя кинозвезда» — американская драма с Бертом Рейнолдсом в главной роли о стареющем актере, сожалеющем об ушедшей славе.

    [img]http://www.kinopoisk.ru/rating/989827.gif[/img]

    Страна: США
    Студия: Broken Twig Productions Inc.
    Продолжительность: 01:43:43
    Перевод: Любительский многоголосый | HDrezka Studio

    Файл
    Кодек: h.264
    Качество: BDRip 1080p
    Видео: 1920x800 (2.40:1), 23.976 fps, 9 052 Kbps
    Звук #1: AC3, 2 ch, 384 Kbps | Любительский многоголосый
    Звук #2: DTS, 6 ch, 1536 Kbps | Оригинал
    Субтитры: Английские



    MI
    Format                         : Matroska
    Format version                 : Version 2
    File size                      : 7.93 GiB
    Duration                       : 1h 43mn
    Overall bit rate               : 10.9 Mbps
    Movie name                     : The Last Movie Star (2017) BDRip 1080p
    Attachment                     : Yes

    Video
    ID                             : 1
    Format                         : AVC
    Format/Info                    : Advanced Video Codec
    Format profile                 : High@L4.1
    Format settings, CABAC         : Yes
    Format settings, ReFrames      : 5 frames
    Codec ID                       : V_MPEG4/ISO/AVC
    Duration                       : 1h 43mn
    Bit rate                       : 9 052 Kbps
    Width                          : 1 920 pixels
    Height                         : 800 pixels
    Display aspect ratio           : 2.40:1
    Frame rate mode                : Constant
    Frame rate                     : 23.976 fps
    Color space                    : YUV
    Chroma subsampling             : 4:2:0
    Bit depth                      : 8 bits
    Scan type                      : Progressive
    Bits/(Pixel*Frame)             : 0.246
    Stream size                    : 6.40 GiB (81%)
    Title                          : The Last Movie Star
    Writing library                : x264 core 155 r2901 7d0ff22
    Encoding settings              : cabac=1 / ref=5 / deblock=1:-3:-3 / analyse=0x3:0x133 / me=umh / subme=8 / psy=1 / psy_rd=1.00:0.00 / mixed_ref=1 / me_range=16 / chroma_me=1 / trellis=1 / 8x8dct=1 / cqm=0 / deadzone=21,11 / fast_pskip=0 / chroma_qp_offset=-2 / threads=25 / lookahead_threads=4 / sliced_threads=0 / nr=0 / decimate=1 / interlaced=0 / bluray_compat=0 / constrained_intra=0 / bframes=3 / b_pyramid=2 / b_adapt=1 / b_bias=0 / direct=3 / weightb=1 / open_gop=0 / weightp=2 / keyint=250 / keyint_min=23 / scenecut=40 / intra_refresh=0 / rc_lookahead=50 / rc=2pass / mbtree=1 / bitrate=9052 / ratetol=1.0 / qcomp=0.60 / qpmin=0 / qpmax=69 / qpstep=4 / cplxblur=20.0 / qblur=0.5 / vbv_maxrate=62500 / vbv_bufsize=78125 / nal_hrd=none / filler=0 / ip_ratio=1.40 / aq=1:1.00
    Language                       : English
    Default                        : Yes
    Forced                         : Yes

    Audio #1
    ID                             : 2
    Format                         : AC-3
    Format/Info                    : Audio Coding 3
    Mode extension                 : CM (complete main)
    Format settings, Endianness    : Big
    Codec ID                       : A_AC3
    Duration                       : 1h 43mn
    Bit rate mode                  : Constant
    Bit rate                       : 384 Kbps
    Channel(s)                     : 2 channels
    Channel positions              : Front: L R
    Sampling rate                  : 48.0 KHz
    Bit depth                      : 16 bits
    Compression mode               : Lossy
    Stream size                    : 285 MiB (4%)
    Title                          : Любительский многоголосый [HDrezka Studio]
    Language                       : Russian
    Default                        : Yes
    Forced                         : Yes

    Audio #2
    ID                             : 3
    Format                         : DTS
    Format/Info                    : Digital Theater Systems
    Mode                           : 16
    Format settings, Endianness    : Big
    Codec ID                       : A_DTS
    Duration                       : 1h 43mn
    Bit rate mode                  : Constant
    Bit rate                       : 1 509 Kbps
    Channel(s)                     : 6 channels
    Channel positions              : Front: L C R, Side: L R, LFE
    Sampling rate                  : 48.0 KHz
    Bit depth                      : 24 bits
    Compression mode               : Lossy
    Stream size                    : 1.09 GiB (14%)
    Language                       : English
    Default                        : No
    Forced                         : No

    Text
    ID                             : 4
    Format                         : VobSub
    Muxing mode                    : zlib
    Codec ID                       : S_VOBSUB
    Language                       : English
    Default                        : No
    Forced                         : No

    Menu
    00:00:00.000                   : en:00:00:00.000
    00:05:49.641                   : en:00:05:49.641
    00:11:44.579                   : en:00:11:44.579
    00:18:28.315                   : en:00:18:28.315
    00:26:28.211                   : en:00:26:28.211
    00:30:31.538                   : en:00:30:31.538
    00:38:55.625                   : en:00:38:55.625
    00:43:24.352                   : en:00:43:24.352
    00:50:18.057                   : en:00:50:18.057
    00:56:17.791                   : en:00:56:17.791
    01:02:40.757                   : en:01:02:40.757
    01:09:12.607                   : en:01:09:12.607
    01:14:24.168                   : en:01:14:24.168
    01:20:12.307                   : en:01:20:12.307
    01:28:20.003                   : en:01:28:20.003
    01:35:19.255                   : en:01:35:19.255

    Свернуть
    Инструкция по скачиванию
     1  Качаем uTorrent версии 2.0 и выше
     2  После установки, жмем выше под постером на ссылку Скачать [MediaGet] или Скачать .torrent
     3  Открываем скачанный файл через соответствующий клиент: MediaGet или uTorrent
     4  Ждем пока подключатся участники
     5  Качаем
    Комментарии о  Последняя кинозвезда / The Last Movie Star | BDRip 1080p 
    Ближайшее в кино
    Вверх