• Игры для PS4
  • Игры для PS3
  • Игры для XBOX360
  • Игры для PC
  • Игры для PS2
  • Игры для PSP
  • Для телефонов
  • Музыка
  • Книги / Журналы
  • Обои
  • Опрос
    Откуда Вы о нас узнали?
      0
    • От знакомых2,1,false,300,full
    • Из социальных сетей2,2,false,300,full
    • Из поисковых систем2,3,false,300,full
    • Другое2,4,false,300,full
    Статистика
    Всего онлайн -
    Гостей -
    Пользователей -
    Короли трекера
    
    Благодарности () Закрыть
    Быстрее загружает сайты Экономит интернет—трафик Меняет оформление страницы ВК Блокирует всю рекламу на сайтах Загружает торренты как µTorrent клиент Объеденяет все твои чаты из соц. сетей в один Проигрывает твою музыку не заходя во ВКонтакте
    Новый интернет-браузер
    Оrbitum
    Скачать
    и многое другое... Подробности на сайте производителя
    Год выпуска: 2008
    Производство: США / Kripke Enterprises, Wonderland Sound and Vision, Warner Bros. Television
    Жанр:  Ужасы, фэнтези, триллер, драма, детектив

    Режиссеры: Роберт Сингер, Филип Сгриккиа, Стив Бойум и другие
    Продюсеры: Филип Сгриккиа, Роберт Сингер, Эрик Крипке, МакДжи,
    Тодд Филип Аронье
    Актеры: Джаред Падалеки, Дженсен Эклс, Миша Коллинз, Джим Бивер, Марк Пеллегрино, Роб Бенедикт, Курт Фуллер, Марк Шеппард, Джейк Абель, Саманта Феррис, Мэтт Фрюэр, Рэйчел Майнер, Эмили Перкинс, Синди Сэмпсон, Ричард Спейт-мл., Алона Таль, Демор Барнс, А. Дж. Бакли, Трейси Динвидди, Джон Гриз, Чед Линдберг, Джули Макнивен, Эдрианн Палики, Джулиан Ричингс, Саманта Смит, Тревис Уэстер, Стивен Уильямс, Беллами Янг, Пэрис Хилтон

    Описание:
    Сломана последняя печать, Люцифер свободен и готовится свершить Армагеддон. В этом ему активно помогают Всадники Апокалипсиса. Не бывать концу света без схватки двух архангелов — Михаила и Люцифера. Но устроить битву во имя рая на Земле архангелы не могут, не имея орудий своих. Меч Михаила, его главное оружие на Земле, утерян, и он должен отыскать его, прежде чем заточить Люцифера назад в клетку.

    Битва Михаила и Люцифера на Земле погубит более чем половину планеты и её населения, Винчестеры ни за что не допустят этого. Им удаётся найти другой, более безопасный для планеты способ расправиться с Люцифером.

    Перевод: Дублированный (РенТВ)
    Субтитры: Русские, английские

    Дата мировой премьеры: 10 сентября 2009

    [img]http://i99.fastpic.ru/big/2018/0327/20/73304ef4ba85dd2b0bd5c3970374d720.gif[/img]

    Продолжительность: ~00:40:00 серия
    Качество видео: DVD5 [BD -> DVD]

    Видео: MPEG-2, 720x576@1024x576 (PAL 16:9), ~4500 Кбит/сек
    Аудио 1: AC3 2.0, 192 Кбит/сек [Русский - дублированный]
    Аудио 2: AC3 2.0, 192 Кбит/сек [Английский - оригинал]

    DVDInfo
    Title: Disc 1
    Size: 4.36 Gb ( 4 569 274 KBytes ) - DVD-5
    Enabled regions: 1, 2, 3, 4, 5, 6, 7, 8

    VTS_01 :
    Play Length: 00:40:42+00:40:38+00:39:42
    Video: PAL 16:9 (720x576) VBR, Auto Pan&Scan
    Audio:
    Russian (Dolby AC3, 2 ch)
    English (Dolby AC3, 2 ch)
    Subtitles:
    Russian
    English

    Menu Video:
    PAL 4:3 (720x576) VBR
    Menu English Language Unit :
    Root MenuСвернуть


    MediaInfo
    Видео
    Идентификатор                            : 224 (0xE0)
    Формат                                   : MPEG Video
    Версия формата                           : Version 2
    Профиль формата                          : Main@Main
    Настройки формата                        : CustomMatrix / BVOP
    Параметр BVOP формата                    : Да
    Параметр матрицы формата                 : Выборочная
    Параметр GOP формата                     : Variable
    Продолжительность                        : 24 м. 56 с.
    Вид битрейта                             : Переменный
    Битрейт                                  : 5241 Кбит/сек
    Максимальный битрейт                     : 9400 Кбит/сек
    Ширина                                   : 720 пикселей
    Высота                                   : 576 пикселей
    Соотношение сторон                       : 16:9
    Частота кадров                           : 25,000 кадров/сек
    Стандарт вещания                         : PAL
    Цветовое пространство                    : YUV
    Субдискретизация насыщенности            : 4:2:0
    Битовая глубина                          : 8 бит
    Тип развёртки                            : Прогрессивная
    Метод сжатия                             : С потерями
    Бит/(Пиксели*Кадры)                      : 0.505
    Временной код первого кадра              : 00:00:00:00
    Оригинал временного кода                 : Group of pictures header
    Размер потока                            : 935 Мбайт (91%)

    Аудио #1
    Идентификатор                            : 189 (0xBD)-128 (0x80)
    Формат                                   : AC-3
    Формат/Информация                        : Audio Coding 3
    Параметр Endianness формата              : Big
    Режим смешивания                         : DVD-Video
    Продолжительность                        : 24 м. 56 с.
    Вид битрейта                             : Постоянный
    Битрейт                                  : 192 Кбит/сек
    Каналы                                   : 2 канала
    Расположение каналов                     : Front: L R
    Частота                                  : 48,0 КГц
    Частота кадров                           : 31,250 кадров/сек (1536 SPF)
    Битовая глубина                          : 16 бит
    Метод сжатия                             : С потерями
    Размер потока                            : 34,3 Мбайт (3%)
    ServiceKind                              : Complete Main

    Аудио #2
    Идентификатор                            : 189 (0xBD)-129 (0x81)
    Формат                                   : AC-3
    Формат/Информация                        : Audio Coding 3
    Параметр Endianness формата              : Big
    Режим смешивания                         : DVD-Video
    Продолжительность                        : 24 м. 56 с.
    Вид битрейта                             : Постоянный
    Битрейт                                  : 192 Кбит/сек
    Каналы                                   : 2 канала
    Расположение каналов                     : Front: L R
    Частота                                  : 48,0 КГц
    Частота кадров                           : 31,250 кадров/сек (1536 SPF)
    Битовая глубина                          : 16 бит
    Метод сжатия                             : С потерями
    Размер потока                            : 34,3 Мбайт (3%)
    ServiceKind                              : Complete Main

    Текст #1
    Идентификатор                            : 189 (0xBD)-32 (0x20)
    Формат                                   : RLE
    Формат/Информация                        : Run-length encoding
    Режим смешивания                         : DVD-Video
    Задержка видео                           : 3 с. 40 мс.

    Текст #2
    Идентификатор                            : 189 (0xBD)-33 (0x21)
    Формат                                   : RLE
    Формат/Информация                        : Run-length encoding
    Режим смешивания                         : DVD-Video

    Меню

    Свернуть


    Доп. информация
    Видео, звуковые дорожки, субтитры и чаптеры взяты с BDRemux. Видео обрабатывалось с помощью CarbonCoder в VBR в два прохода. Звуковые дорожки обрабатывались в Sony Vegas. Меню собственное, сделанное с помощью Adobe Photoshop и Adobe Encore. Диски собирал с помощью MuxMan и DvdReMakePro.Свернуть


    Список серий
    Диск 1:
    01. Сочувствие Дьяволу / Sympathy for the Devil
    02. О, Боже, и вы тоже! / Good God, Y"All
    03. Будь самим собой / Free to be You and Me
    Диск 2:
    04. Конец / The End
    05. Не сотвори себе кумира / Fallen Idols
    06. Дети — наше будущее! / I Believe the Children are Our Future
    Диск 3:
    07. Загадочная история Дина Винчестера / The Curious Case of Dean Winchester
    08. Переключая каналы / Changing Channels
    09. Настоящие охотники за привидениями / The Real Ghostbusters
    Диск 4:
    10. Оставь надежду... / Abandon All Hope..
    11. Слепая ярость / Sam, Interrupted
    12. Их поменяли местами / Swap Meat
    Диск 5:
    13. Старая песня о главном / The Song Remains The Same
    14. Мой кровавый Валентин / My Bloody Valentine
    15. А зомби здесь тихие / Dead Men Don"t Wear Plaid
    Диск 6:
    16. Обратная сторона Луны / Dark Side Of The Moon
    17. 99 проблем / 99 Problems
    18. Обратной дороги нет / Point of no Return
    Диск 7:
    19. Молот Богов / Hammer of the Gods
    20. Мириться лучше со знакомым злом / The Devil You Know
    21. Две минуты до полуночи / Two Minutes to Midnight
    Диск 8:
    22. Лебединая песня / Swan Song
    Свернуть




    Похожие раздачи Искать похожие
    Инструкция по скачиванию
     1  Качаем uTorrent версии 2.0 и выше
     2  После установки, жмем выше под постером на ссылку Скачать [MediaGet] или Скачать .torrent
     3  Открываем скачанный файл через соответствующий клиент: MediaGet или uTorrent
     4  Ждем пока подключатся участники
     5  Качаем
    Комментарии о  Сверхъестественное / Supernatural [Сезон 05] | DVD5 
    Ближайшее в кино
    Вверх