• Игры для PS4
  • Игры для PS3
  • Игры для XBOX360
  • Игры для PC
  • Игры для PS2
  • Игры для PSP
  • Для телефонов
  • Музыка
  • Книги/Журналы
  • Обои
  •  
    Опрос
    Удобен ли сайт в использовании?
      0
    • Очень удобен, все понятно1,1,false,300,full
    • Удобен1,2,false,300,full
    • Средне1,3,false,300,full
    • Неудобен, трудно ориентироваться1,4,false,300,full
    • Совсем неудобен1,5,false,300,full
    Статистика
    Загрузка...
    Токийский Гуль ТВ-2 / Tokyo Ghoul A TV-2 [Сезон 01] | HDTVRip 720p
    Статус  Проверено
    В закладки
    Модератор: Max

    Токийский Гуль ТВ-2 / Tokyo Ghoul A TV-2 [Сезон 01] | HDTVRip 720p [Сериалы 2015] скачать торрентом/torrent бесплатно

    Год выхода
    Категории
    Язык
    Закачал
    Аноним | 15 апреля в 13ч 53м 19с
    Раздел
    Отзывов
    0
    Раздают: 10 Качают: 0 Скачали: 18 Размер: 4.85 GB
    Инфо о раздаче | Благодарности |
    0/5
    0
    0 5 0
    Поддержи нас — расскажи друзьям!
    Orbitum
    Новый интернет-браузер Быстрее загружает сайты Экономит интернет—трафик Меняет оформление страницы ВК Блокирует всю рекламу на сайтах Загружает торренты как

    µTorrent

    клиент
    Объеденяет все твои чаты из соц. сетей в один Проигрывает твою музыку не заходя во ВКонтакте
    Скачать и многое другое... Подробности на сайте производителя
    Информация о фильме
    Название: Токийский Гуль ТВ-2
    Оригинальное название: Tokyo Ghoul A
    Год выхода: 2015
    Жанр: мистика, драма, ужасы
    Режиссер: Морита Сюхэй
    Художник: Нагай Кэйсукэ
    В ролях: Ханаэ Нацуки, Амамия Сора, Ханадзава Кана, Тоёнага Тосиюки, Асанума Синтаро, Суго Такаюки, Кониси Кацуюки, Морохоси Сумирэ, Мияно Мамору, Окава Тору, Накамура Юйти, Сакурай Такахиро, Такагаки Аяхи, Ниси Ринтаро, Кадзи Юки, Кугимия Риэ, Ито Кэнтаро, Накано Ютака, Уэда Юдзи, Цуда Кэндзиро
    О фильме:
    Пройдя через страшную боль, унижение и ломку жизненных ценностей, Кэн Канэки переродился. Вместо неуклюжего гибрида человека и упыря возникло что-то новое, гораздо сильнее и совершеннее. Выпустив и укротив внутреннего зверя, Кэн встал на дорогу могущества, но куда она приведет? Пока что молодой боец уверен в одном – только абсолютная сила позволит ему жить так, как хочет, и защитить тех немногих, кто остался дорог. Остальные же – лишь враги, добыча, и ничего более.
    Приняв закон джунглей, мрачный седой парень больше не уклоняется от конфликтов, а жестко ставит себя среди хищников. Такая резкая перемена заинтересовала тайную организацию гулей, стремящуюся к мировому господству своей расы. Возросшая активность людоедов заставила власти принять меры – а пострадать, как обычно, должны непричастные, в том числе мирные гули из кафе «Место встречи», когда-то спасшие Канэки и взявшие его под защиту. С кем будет главный герой в трудный час – со старыми или новыми друзьями? Или, как говорится, каждый за себя?

    [img]http://s019.radikal.ru/i622/1702/d7/eada0eaecb30.gif[/img]
    World Art | MAL

    Страна: Япония
    Студия: Studio Pierrot
    Продолжительность: 00:24:30
    Язык: Русский, Японский
    Перевод: Любительский (многоголосый, закадровый), Любительский (двухголосый, закадровый)

    Файл
    Качество: HDTVRip
    Формат: MKV
    Кодек: H.264
    Аудио кодек: AAC
    Видео: 1280x720, 23.976 fps, 1900 kbps
    Аудио RUS: 48.0 kHz, AAC, 2 ch, 192 kbps - Студия KANSAI
    Аудио RUS: 48.0 kHz, AAC, 2 ch, 192 kbps - AniDub
    Аудио RUS: 48.0 kHz, AAC, 2 ch, 192 kbps - AniLibria
    Аудио JAP: 48.0 kHz, AAC, 2 ch, 192 kbps
    Субтитры: русские (встроенные полный перевод, ASS) - Anku & mutagenb
    Субтитры: русские (встроенные полный перевод, ASS) - Amanri & Nachtwandler
    Субтитры: русские (встроенные полный перевод, ASS) - Firegorn Team
    Субтитры: русские (встроенные полный перевод, ASS) - AniLibria

    Озвучка

    Озвучивание: JAM, Nika Lenina
    Перевод: Jeka
    Тайминг и работа со звуком: Deven, SuNRiZ

    Озвучивание: Lupin, Manaoki, Metacarmex, Silv, Say




    Список серий
    01. Крах
    02. Танцующие цветы
    03. Палач
    04. Глубокий горизонт
    05. Трещина
    06. Тысяча дорог
    07. Проникновение
    08. Девятка
    09. Затишье в городе
    10. Последний дождь
    11. Ливень из цветов
    12. Кен


    MediaInfo
    General
    Format : Matroska
    Format version : Version 4 / Version 2
    File size : 460 MiB
    Duration : 24 min
    Overall bit rate : 2 627 kb/s
    Encoded date : UTC 2018-04-13 16:05:39
    Writing application : mkvmerge v8.3.0 ("Over the Horizon") 64bit
    Writing library : libebml v1.3.1 + libmatroska v1.4.2

    Video
    ID : 1
    Format : AVC
    Format/Info : Advanced Video Codec
    Format profile : Main@L4.1
    Format settings, CABAC : Yes
    Format settings, ReFrames : 4 frames
    Codec ID : V_MPEG4/ISO/AVC
    Duration : 24 min
    Bit rate : 1 842 kb/s
    Width : 1 280 pixels
    Height : 720 pixels
    Display aspect ratio : 16:9
    Frame rate mode : Variable
    Frame rate : 23.856 FPS
    Original frame rate : 23.976 (24000/1001) FPS
    Color space : YUV
    Chroma subsampling : 4:2:0
    Bit depth : 8 bits
    Scan type : Progressive
    Bits/(Pixel*Frame) : 0.084
    Stream size : 323 MiB (70%)
    Writing library : x264 core 144 r2525kMod 40bb568
    Encoding settings : cabac=1 / ref=3 / deblock=1:0:0 / analyse=0x1:0x111 / me=hex / subme=7 / psy=1 / fade_compensate=0.00 / psy_rd=1.00:0.00 / mixed_ref=1 / me_range=16 / chroma_me=1 / trellis=1 / 8x8dct=0 / cqm=0 / deadzone=21,11 / fast_pskip=0 / chroma_qp_offset=-2 / threads=12 / lookahead_threads=2 / sliced_threads=0 / nr=0 / decimate=0 / interlaced=0 / bluray_compat=0 / constrained_intra=0 / fgo=0 / bframes=3 / b_pyramid=2 / b_adapt=1 / b_bias=0 / direct=1 / weightb=1 / open_gop=0 / weightp=2 / keyint=240 / keyint_min=1 / scenecut=40 / intra_refresh=0 / rc_lookahead=40 / rc=crf / mbtree=1 / crf=20.0000 / qcomp=0.60 / qpmin=10 / qpmax=26 / qpstep=8 / vbv_maxrate=8000 / vbv_bufsize=8000 / crf_max=0.0 / nal_hrd=none / filler=0 / ip_ratio=1.40 / aq=1:1.00
    Default : Yes
    Forced : No
    Color range : Limited
    Color primaries : BT.709
    Transfer characteristics : BT.709
    Matrix coefficients : BT.709

    Audio #1
    ID : 2
    Format : AAC
    Format/Info : Advanced Audio Codec
    Format profile : LC
    Codec ID : A_AAC
    Duration : 24 min
    Bit rate : 192 kb/s
    Channel(s) : 2 channels
    Channel positions : Front: L R
    Sampling rate : 48.0 kHz
    Frame rate : 46.875 FPS (1024 spf)
    Compression mode : Lossy
    Stream size : 33.6 MiB (7%)
    Title : KANSAI
    Language : Russian
    Default : Yes
    Forced : No

    Audio #2
    ID : 3
    Format : AAC
    Format/Info : Advanced Audio Codec
    Format profile : LC
    Codec ID : A_AAC
    Duration : 24 min
    Bit rate : 192 kb/s
    Channel(s) : 2 channels
    Channel positions : Front: L R
    Sampling rate : 48.0 kHz
    Frame rate : 46.875 FPS (1024 spf)
    Compression mode : Lossy
    Stream size : 33.7 MiB (7%)
    Title : AniDub
    Language : Russian
    Default : No
    Forced : No

    Audio #3
    ID : 4
    Format : AAC
    Format/Info : Advanced Audio Codec
    Format profile : LC
    Codec ID : A_AAC
    Duration : 24 min
    Bit rate : 192 kb/s
    Channel(s) : 2 channels
    Channel positions : Front: L R
    Sampling rate : 48.0 kHz
    Frame rate : 46.875 FPS (1024 spf)
    Compression mode : Lossy
    Stream size : 33.5 MiB (7%)
    Title : AniLibria
    Language : Russian
    Default : No
    Forced : No

    Audio #4
    ID : 5
    Format : AAC
    Format/Info : Advanced Audio Codec
    Format profile : LC
    Codec ID : A_AAC
    Duration : 24 min
    Bit rate : 205 kb/s
    Channel(s) : 2 channels
    Channel positions : Front: L R
    Sampling rate : 48.0 kHz
    Frame rate : 46.875 FPS (1024 spf)
    Compression mode : Lossy
    Stream size : 35.9 MiB (8%)
    Title : Original
    Language : Japanese
    Default : No
    Forced : No

    Text #1
    ID : 6
    Format : ASS
    Codec ID : S_TEXT/ASS
    Codec ID/Info : Advanced Sub Station Alpha
    Duration : 23 min
    Bit rate : 111 b/s
    Count of elements : 241
    Compression mode : Lossless
    Stream size : 18.8 KiB (0%)
    Title : Полные субтитры - Anku & mutagenb
    Language : Russian
    Default : Yes
    Forced : No

    Text #2
    ID : 7
    Format : ASS
    Codec ID : S_TEXT/ASS
    Codec ID/Info : Advanced Sub Station Alpha
    Duration : 24 min
    Bit rate : 80 b/s
    Count of elements : 227
    Compression mode : Lossless
    Stream size : 14.2 KiB (0%)
    Title : Полные субтитры - Amanri & Nachtwandler
    Language : Russian
    Default : No
    Forced : No

    Text #3
    ID : 8
    Format : ASS
    Codec ID : S_TEXT/ASS
    Codec ID/Info : Advanced Sub Station Alpha
    Duration : 21 min
    Bit rate : 81 b/s
    Count of elements : 189
    Compression mode : Lossless
    Stream size : 12.7 KiB (0%)
    Title : Полные субтитры - Firegorn Team
    Language : Russian
    Default : No
    Forced : No

    Text #4
    ID : 9
    Format : ASS
    Codec ID : S_TEXT/ASS
    Codec ID/Info : Advanced Sub Station Alpha
    Duration : 21 min
    Bit rate : 71 b/s
    Count of elements : 187
    Compression mode : Lossless
    Stream size : 11.2 KiB (0%)
    Title : Полные субтитры - AniLibria
    Language : Russian
    Default : No
    Forced : No
    Еще похожие »

    Как скачать?
    1. Качаем UTorrent версии 2.0 и выше отсюда
    2. После установки, жмем на ссылку Скачать торрент.
    3. Открываем его через utorrent.
    4. Ждем пока подключатся участники.
    5. Качаем.


    Комментарии о Токийский Гуль ТВ-2 / Tokyo Ghoul A TV-2 [Сезон 01] | HDTVRip 720p
    Добавлять комментарии могут только зарегистрированные пользователи

    Зарегистрироваться или Войти


    Ближайшее в кино
    • МУЛЬТ в кино. Выпуск №80. Время открытий дата выхода 15 сентября 2018МУЛЬТ в кино. Выпуск №80. Время открытий
      Дата выхода: 15 сентября 2018
    • 40783|Трудно быть Богом|20 сентября 2018|200|300Трудно быть Богом
      Дата выхода: 20 сентября 2018
    • 463858|Лондонские поля|20 сентября 2018|200|300Лондонские поля
      Дата выхода: 20 сентября 2018
    • 991225|Проклятие монахини|20 сентября 2018|200|300Проклятие монахини
      Дата выхода: 20 сентября 2018
    • 46671|Мой друг Иван Лапшин|20 сентября 2018|200|300Мой друг Иван Лапшин
      Дата выхода: 20 сентября 2018
    • 43332|Проверка на дорогах|20 сентября 2018|200|300Проверка на дорогах
      Дата выхода: 20 сентября 2018
    • 44339|Двадцать дней без войны|20 сентября 2018|200|300Двадцать дней без войны
      Дата выхода: 20 сентября 2018
    • 1068627|Простая просьба|20 сентября 2018|200|300Простая просьба
      Дата выхода: 20 сентября 2018
    • 987695|Бои без правил|20 сентября 2018|200|300Бои без правил
      Дата выхода: 20 сентября 2018
    • 1045478|Агент Джонни Инглиш 3.0|20 сентября 2018|200|300Агент Джонни Инглиш 3.0
      Дата выхода: 20 сентября 2018
    • 1047742|Доминика|20 сентября 2018|200|300Доминика
      Дата выхода: 20 сентября 2018
    • 1031263|Храброе сердце. Заговор в королевстве|20 сентября 2018|200|300Храброе сердце. Заговор в королевстве
      Дата выхода: 20 сентября 2018
    • 1025397|Закону тут не место|20 сентября 2018|200|300Закону тут не место
      Дата выхода: 20 сентября 2018
    • 1111982|Панды 3D|20 сентября 2018|200|300Панды 3D
      Дата выхода: 20 сентября 2018
    • 1115405|Мария до Каллас|20 сентября 2018|200|300Мария до Каллас
      Дата выхода: 20 сентября 2018
    Вверх