• Игры для PS3
  • Игры для XBOX360
  • Игры для PC
  • Игры для PS2
  • Игры для PSP
  • Для телефонов
  • Музыка
  • Книги/Журналы
  • Обои
  •  
    Опрос
    Откуда Вы о нас узнали?
      0
    • От знакомых2,1,false,300,full
    • Из социальных сетей2,2,false,300,full
    • Из поисковых систем2,3,false,300,full
    • Другое2,4,false,300,full
    Статистика
    Загрузка...
    Чего хочет девушка / What a Girl Wants | WEB-DL 1080p
    Статус  Проверено
    В закладки
    Модератор: Max

    Чего хочет девушка / What a Girl Wants | WEB-DL 1080p [Фильмы 2003] скачать торрентом/torrent бесплатно

    Год выхода
    Язык
    Закачал
    Max | 15 апреля в 15ч 21м 36с
    Раздел
    Отзывов
    0
    Раздают: 6 Качают: 1 Скачали: 60 Размер: 10.87 GB
    Инфо о раздаче | Благодарности |
    0/5
    0
    0 5 0
    Поддержи нас — расскажи друзьям!
    Orbitum
    Новый интернет-браузер Быстрее загружает сайты Экономит интернет—трафик Меняет оформление страницы ВК Блокирует всю рекламу на сайтах Загружает торренты как

    µTorrent

    клиент
    Объеденяет все твои чаты из соц. сетей в один Проигрывает твою музыку не заходя во ВКонтакте
    Скачать и многое другое... Подробности на сайте производителя
    Название: Чего хочет девушка
    Оригинальное название: What a Girl Wants
    Год выхода: 2003
    Страна: США
    Студия: Warner Bros., Gaylord Films, DiNovi Pictures
    Продолжительность: 01:44:56
    Жанр: драма, мелодрама, комедия, семейный
    Режиссер: Дэнни Гордон
    В ролях: Аманда Байнс, Колин Фёрт, Келли Престон, Айлин Эткинс, Анна Чэнселлор, Джонатан Прайс, Оливер Джеймс, Кристина Коул, Сильвия Симс, Солейл МакГи, ...

    Перевод:
    - Профессиональный (двуголосый, закадровый) R5 от «Premier Digital»
    - Профессиональный (многоголосый, закадровый) TV НТВ+ по заказу НТВ
    - Профессиональный (многоголосый, закадровый) TV Россия
    - Субтитры

    О фильме: Дафна, семнадцатилетняя свободолюбивая девушка, отправляется из Нью-Йорка в Англию на поиски своего отца, которого она никогда не знала. Папочка же оказывается богатым аристократом и известным политиком.
    Теперь Дафне предстоит стать своей в великосветском окружении отца, погрузившись с головой в бесконечную череду богемных приемов, показов мод и вечеринок. Но сладкая жизнь омрачается множеством трудностей: Дафне предстоит освоить все тонкости этикета, наладить отношения со сводной сестрой и, самое главное, — остаться верной себе и своим идеалам.
    И она блестяще справляется с поставленной целью — с находчивостью и изобретательностью, которым позавидовала бы любая юная леди…



    Кодек: x264
    Качество: WEB-DL 1080p (AMZN)
    Видео: 1920x1080, 13300 kbps, 23,976 fps
    Аудио #1: AC-3, 6 ch, 384 kbps (Rus) - DVO R5 «Premier Digital»
    Аудио #2: AC-3, 2 ch, 160 kbps (Rus) - MVO НТВ+
    Аудио #3: AC-3, 2 ch, 128 kbps (Rus) - MVO Россия
    Аудио #4: AC-3, 6 ch, 384 kbps (Eng) - DVD 9
    Аудио #5: AC-3, 2 ch, 224 kbps (Eng) - AMZN
    Субтитры: русские, английские



    MediaInfo
    Общее
    Уникальный идентификатор : 230216668025451479674289867155710231748 (0xAD321E122B19F9A49CE50F82FDD144C4)
    Полное имя : Чего хочет девушка (What A Girl Wants) 2003 WEBRip 1080p.mkv
    Формат : Matroska
    Версия формата : Version 2
    Размер файла : 10,9 Гбайт
    Продолжительность : 1 ч. 44 м.
    Режим общего битрейта : Переменный
    Общий поток : 14,8 Мбит/сек
    Дата кодирования : UTC 2018-04-15 10:53:06
    Программа кодирования : mkvmerge v4.0.0 ("The Stars were mine") сборка от Jun 6 2010 16:18:42
    Библиотека кодирования : libebml v1.0.0 + libmatroska v1.0.0

    Видео
    Идентификатор : 1
    Формат : AVC
    Формат/Информация : Advanced Video Codec
    Профиль формата : High@L4
    Параметр CABAC формата : Да
    Параметр ReFrames формата : 4 кадра
    Идентификатор кодека : V_MPEG4/ISO/AVC
    Продолжительность : 1 ч. 44 м.
    Вид битрейта : Переменный
    Битрейт : 13,3 Мбит/сек
    Максимальный битрейт : 15,0 Мбит/сек
    Ширина : 1920 пикселей
    Высота : 1080 пикселей
    Соотношение сторон : 16:9
    Режим частоты кадров : Постоянный
    Частота кадров : 23,976 (24000/1001) кадра/сек
    Цветовое пространство : YUV
    Субдискретизация насыщенности : 4:2:0
    Битовая глубина : 8 бит
    Тип развёртки : Прогрессивная
    Бит/(Пиксели*Кадры) : 0.267
    Размер потока : 9,72 Гбайт (89%)
    Библиотека кодирования : x264 core 148 r2623 d5b2374
    Настройки программы : cabac=1 / ref=4 / deblock=1:-1:-1 / analyse=0x3:0x133 / me=umh / subme=9 / psy=1 / psy_rd=1.00:0.15 / mixed_ref=1 / me_range=24 / chroma_me=1 / trellis=2 / 8x8dct=1 / cqm=0 / deadzone=21,11 / fast_pskip=1 / chroma_qp_offset=-3 / threads=34 / lookahead_threads=5 / sliced_threads=0 / nr=150 / decimate=1 / interlaced=0 / bluray_compat=0 / constrained_intra=0 / bframes=8 / b_pyramid=2 / b_adapt=2 / b_bias=0 / direct=3 / weightb=1 / open_gop=0 / weightp=2 / keyint=120 / keyint_min=61 / scenecut=0 / intra_refresh=0 / rc_lookahead=120 / rc=crf / mbtree=1 / crf=18.0 / qcomp=0.60 / qpmin=0 / qpmax=69 / qpstep=4 / vbv_maxrate=15000 / vbv_bufsize=31250 / crf_max=0.0 / nal_hrd=vbr / filler=0 / ip_ratio=1.40 / aq=3:1.00
    Язык : English
    Default : Нет
    Forced : Нет
    Цветовой диапазон : Limited
    Основные цвета : BT.709
    Характеристики трансфера : BT.709
    Коэффициенты матрицы : BT.709

    Аудио #1
    Идентификатор : 2
    Формат : AC-3
    Формат/Информация : Audio Coding 3
    Расширение режима : CM (complete main)
    Параметр Endianness формата : Big
    Идентификатор кодека : A_AC3
    Продолжительность : 1 ч. 44 м.
    Вид битрейта : Постоянный
    Битрейт : 384 Кбит/сек
    Каналы : 6 каналов
    Расположение каналов : Front: L C R, Side: L R, LFE
    Частота : 48,0 КГц
    Частота кадров : 31,250 кадров/сек (1536 spf)
    Метод сжатия : С потерями
    Размер потока : 288 Мбайт (3%)
    Заголовок : DVO R5 «Premier Digital»
    Язык : Russian
    Default : Нет
    Forced : Нет

    Аудио #2
    Идентификатор : 3
    Формат : AC-3
    Формат/Информация : Audio Coding 3
    Расширение режима : CM (complete main)
    Параметр Endianness формата : Big
    Идентификатор кодека : A_AC3
    Продолжительность : 1 ч. 44 м.
    Вид битрейта : Постоянный
    Битрейт : 160 Кбит/сек
    Каналы : 2 канала
    Расположение каналов : Front: L R
    Частота : 48,0 КГц
    Частота кадров : 31,250 кадров/сек (1536 spf)
    Метод сжатия : С потерями
    Размер потока : 120 Мбайт (1%)
    Заголовок : MVO НТВ+ по заказу НТВ
    Язык : Russian
    Default : Нет
    Forced : Нет

    Аудио #3
    Идентификатор : 4
    Формат : AC-3
    Формат/Информация : Audio Coding 3
    Расширение режима : CM (complete main)
    Параметр Endianness формата : Big
    Идентификатор кодека : A_AC3
    Продолжительность : 1 ч. 44 м.
    Вид битрейта : Постоянный
    Битрейт : 128 Кбит/сек
    Каналы : 2 канала
    Расположение каналов : Front: L R
    Частота : 48,0 КГц
    Частота кадров : 31,250 кадров/сек (1536 spf)
    Метод сжатия : С потерями
    Размер потока : 96,1 Мбайт (1%)
    Заголовок : MVO Россия
    Язык : Russian
    Default : Нет
    Forced : Нет

    Аудио #4
    Идентификатор : 5
    Формат : AC-3
    Формат/Информация : Audio Coding 3
    Расширение режима : CM (complete main)
    Параметр Endianness формата : Big
    Идентификатор кодека : A_AC3
    Продолжительность : 1 ч. 44 м.
    Вид битрейта : Постоянный
    Битрейт : 384 Кбит/сек
    Каналы : 6 каналов
    Расположение каналов : Front: L C R, Side: L R, LFE
    Частота : 48,0 КГц
    Частота кадров : 31,250 кадров/сек (1536 spf)
    Метод сжатия : С потерями
    Размер потока : 288 Мбайт (3%)
    Заголовок : DVD
    Язык : English
    Default : Нет
    Forced : Нет

    Аудио #5
    Идентификатор : 6
    Формат : AC-3
    Формат/Информация : Audio Coding 3
    Расширение режима : CM (complete main)
    Параметр Endianness формата : Big
    Идентификатор кодека : A_AC3
    Продолжительность : 1 ч. 44 м.
    Вид битрейта : Постоянный
    Битрейт : 224 Кбит/сек
    Каналы : 2 канала
    Расположение каналов : Front: L R
    Частота : 48,0 КГц
    Частота кадров : 31,250 кадров/сек (1536 spf)
    Метод сжатия : С потерями
    Размер потока : 168 Мбайт (2%)
    Заголовок : AMZN
    Язык : English
    Default : Нет
    Forced : Нет

    Текст #1
    Идентификатор : 7
    Формат : UTF-8
    Идентификатор кодека : S_TEXT/UTF8
    Идентификатор кодека/Информация : UTF-8 Plain Text
    Язык : Russian
    Default : Нет
    Forced : Нет

    Текст #2
    Идентификатор : 8
    Формат : UTF-8
    Идентификатор кодека : S_TEXT/UTF8
    Идентификатор кодека/Информация : UTF-8 Plain Text
    Язык : English
    Default : Нет
    Forced : Нет

    Меню
    00:00:00.000 : en:Studio Logos
    00:00:38.000 : en:Opening Credits, Daphne Narrates Her Story; Various Locations
    00:02:11.000 : en:Libby Tells Daphne about Her Dad; Daphne"s House
    00:04:45.000 : en:Daphne & Her Mom Work Together; Banquet Hall
    00:08:47.000 : en:Daphne Feels Lonely Without Her Father; Banquet Hall
    00:10:17.000 : en:Daphne Leaves to Find Her Father; House & Taxi
    00:11:37.000 : en:Daphne Arrives in London; Great Britain Grand Hotel
    00:14:34.000 : en:Alistair & Henry Discuss Henry"s Election Speech; Dashwood Mansion
    00:15:48.000 : en:Daphne Meets Ian; Street
    00:16:29.000 : en:Daphne Tries to Enter the Dashwood Mansion; Dashwood Mansion
    00:19:46.000 : en:Daphne Meets Henry; Dashwood Mansion
    00:23:01.000 : en:Henry Is Shocked to Find He Has a Daughter; Dashwood Mansion
    00:24:56.000 : en:Henry Talks to Libby about Daphne; Dashwood Mansion
    00:26:11.000 : en:Henry Believes Daphne Is a Mature Young Lady; Conference Room
    00:27:39.000 : en:Henry Invites Daphne to the Royal Dress Show; Dashwood Mansion
    00:30:53.000 : en:Daphne Has a Mishap in the Bathroom; Dashwood Mansion
    00:33:30.000 : en:Daphne Surprises Everyone; Royal Dress Show
    00:36:11.000 : en:Daphne Plays With Princess Charlotte"s Dog; Royal Dress Show
    00:37:38.000 : en:Henry Talks to Daphne; Dashwood Mansion
    00:40:57.000 : en:Clarissa Gets Jealous of Daphne; Dashwood Mansion
    00:44:04.000 : en:Daphne Gets Attention at Lord Orwood"s Party; Lord Orwood"s Mansion
    00:47:12.000 : en:Daphne Dances With Armistead; Lord Orwood"s Mansion
    00:49:28.000 : en:Daphne & Ian Get the Party Going; Lord Orwood"s Mansion
    00:52:40.000 : en:Henry Looks At Daphne"s Childhood Photos; Dashwood Mansion
    00:54:21.000 : en:Daphne Apologizes to Henry; Dashwood Mansion
    00:56:23.000 : en:Daphne Goes Out With Ian; Dashwood Mansion
    00:57:49.000 : en:Daphne Goes Shopping with Ian; Market
    00:59:21.000 : en:Daphne & Ian Go Boating; Boat
    01:01:45.000 : en:Henry Worries About Daphne; Dashwood Mansion
    01:03:10.000 : en:Henry & Daphne Address the Media; Henley Regatta
    01:05:02.000 : en:Daphne Makes Another Splash; Henley Regatta
    01:08:05.000 : en:Daphne Spends the Day With Henry; Various Locations
    01:11:57.000 : en:Henry Is on the Verge of Losing His Position; Dashwood Office
    01:12:47.000 : en:Daphne Undergoes a Transformation for Henry; Dashwood Mansion
    01:16:45.000 : en:Daphne Goes To the Annual Garden Party; Garden
    01:17:37.000 : en:Henry Introduces Daphne to Society; Dashwood Mansion
    01:20:34.000 : en:Henry & Libby Dance; Dashwood Mansion
    01:24:27.000 : en:Daphne Leaves the Party; Dashwood Mansion
    01:26:27.000 : en:Daphne Tells Henry How She Feels; Dashwood Mansion
    01:28:23.000 : en:Daphne Misses Henry & Ian; Dashwood Mansion
    01:31:33.000 : en:Henry Speaks at a Press Conference; Hall
    01:35:03.000 : en:Henry Surprises Daphne; Lawn
    01:39:49.000 : en:Daphne Lives Happily Ever After; Various Locations
    01:41:05.000 : en:End Credits


    [img]https://a.radikal.ru/a32/1804/3b/07fd528bcda2.jpg[/img][img]https://c.radikal.ru/c14/1804/f0/d0cc91bb1f37.jpg[/img][img]https://a.radikal.ru/a18/1804/1e/ed420906e12d.jpg[/img][img]https://a.radikal.ru/a35/1804/6f/057d0de36ade.jpg[/img]
    [img]https://c.radikal.ru/c17/1804/5f/a0cdcdb539df.jpg[/img][img]https://a.radikal.ru/a09/1804/02/3b251ddd256b.jpg[/img][img]https://d.radikal.ru/d37/1804/16/0ad792539725.jpg[/img][img]https://d.radikal.ru/d36/1804/93/45d8d7fb557f.jpg[/img]
    Еще похожие »

    Как скачать?
    1. Качаем UTorrent версии 2.0 и выше отсюда
    2. После установки, жмем на ссылку Скачать торрент.
    3. Открываем его через utorrent.
    4. Ждем пока подключатся участники.
    5. Качаем.


    Комментарии о Чего хочет девушка / What a Girl Wants | WEB-DL 1080p
    Добавлять комментарии могут только зарегистрированные пользователи

    Зарегистрироваться или Войти


    Ближайшее в кино
    • Привидение дата выхода 26 апреля 2018Привидение
      Дата выхода: 26 апреля 2018
    • 1045590|Правда или действие|26 апреля 2018|200|300Правда или действие
      Дата выхода: 26 апреля 2018
    • 841470|Смешарики. Дежавю|26 апреля 2018|200|300Смешарики. Дежавю
      Дата выхода: 26 апреля 2018
    • 1046545|Танки|26 апреля 2018|200|300Танки
      Дата выхода: 26 апреля 2018
    • 1027311|Дыши во мгле|26 апреля 2018|200|300Дыши во мгле
      Дата выхода: 26 апреля 2018
    • 959260|Миссис Хайд|26 апреля 2018|200|300Миссис Хайд
      Дата выхода: 26 апреля 2018
    • 845128|Я заберу твои деньги|26 апреля 2018|200|300Я заберу твои деньги
      Дата выхода: 26 апреля 2018
    • 1112036|Лицо|26 апреля 2018|200|300Лицо
      Дата выхода: 26 апреля 2018
    • 1076322|Великолепная|26 апреля 2018|200|300Великолепная
      Дата выхода: 26 апреля 2018
    • 1110934|Золушка|28 апреля 2018|200|300Золушка
      Дата выхода: 28 апреля 2018
    • 1115701|МУЛЬТ в кино. Выпуск №74. Планета Май!|28 апреля 2018|200|300МУЛЬТ в кино. Выпуск №74. Планета Май!
      Дата выхода: 28 апреля 2018
    • 928533|Папа-мама гусь|1 мая 2018|200|300Папа-мама гусь
      Дата выхода: 1 мая 2018
    • 843649|Мстители: Война бесконечности|3 мая 2018|200|300Мстители: Война бесконечности
      Дата выхода: 3 мая 2018
    • 939785|Остров собак|3 мая 2018|200|300Остров собак
      Дата выхода: 3 мая 2018
    • 905031|Собибор|3 мая 2018|200|300Собибор
      Дата выхода: 3 мая 2018
    Вверх