• Игры для PS4
  • Игры для PS3
  • Игры для XBOX360
  • Игры для PC
  • Игры для PS2
  • Игры для PSP
  • Для телефонов
  • Музыка
  • Книги / Журналы
  • Обои
  • Опрос
    Удобен ли сайт в использовании?
      0
    • Очень удобен, все понятно1,1,false,300,full
    • Удобен1,2,false,300,full
    • Средне1,3,false,300,full
    • Неудобен, трудно ориентироваться1,4,false,300,full
    • Совсем неудобен1,5,false,300,full
    Статистика
    Всего онлайн -
    Гостей -
    Пользователей -
    Короли трекера
    Благодарности () Закрыть
    Название: Вспышка / Проблеск / ОзарениеНазвание: Вспышка / Проблеск / Озарение
    Оригинальное название: Flashpoint
    Год выпуска: 1984
    Выпущено: США, Home Box Office (HBO), Silver Screen Partners
    Жанр:  Триллер
    Режиссер: Уильям Тэннен
    В ролях: Крис Кристофферсон, Трит Уильямс, Рип Торн, Кевин Конуэй, Кертвуд Смит, Мигель Феррер, Джин Смарт, Гай Бойд, Марк Слэйд, Робертс Блоссом

    О фильме:
    Два офицера пограничного патруля случайно находят полузасыпанный песком джип, а в нем скелет, винтовку и 800 000 долларов наличными, что вовлекает их в таинственную историю, начало которой датируется 1963 годом. Эта находка повлекла за собой вереницу захватывающих и насыщенных «экшеном» приключений, ежеминутно грозящих им смертью. И связано это все, возможно, с убийством президента Кеннеди…

    Продолжительность: 01:33:00
    Перевод: Дублированный, авторский
    Субтитры: Английские
    Навигация по главам: Есть

    Файл
    Качество: WEB-DL 1080p
    Видео: MPEG-4 AVC, 13,6 Мбит/сек, 1920x1080, 29,970 кадров/сек
    Аудио #1: AC3, 2 ch, 192 Кбит/сек | Русский, профессиональный (Советский дубляж) со вставками одноголосого, Stalk
    Аудио #2: AC3, 2 ch, 192 Кбит/сек | Русский, авторский (одноголосый закадровый) Алексей Михалев
    Аудио #3: AC3, 2 ch, 192 Кбит/сек | Русский, авторский (одноголосый закадровый) Леонид Володарский
    Аудио #4: EAC3, 2 ch, 224 Кбит/сек | Английский, оригинал



    Скриншоты
    [screen]http://img12.lostpic.net/2018/04/15/4ae904d4c083dbd5f1f6837e16d89cce.png[/screen][screen]http://img12.lostpic.net/2018/04/15/3379959c8a81bc4a326780572ed9e302.png[/screen][screen]http://img12.lostpic.net/2018/04/15/c8a722713415d633ad8aabb32cd72885.png[/screen][screen]http://img12.lostpic.net/2018/04/15/475c6d3dcb9a28aeb5eec2cdad19120e.png[/screen][screen]http://img12.lostpic.net/2018/04/15/2053042cdf16db75059b0ef97890ad64.png[/screen][screen]http://img12.lostpic.net/2018/04/15/899cf9cfd7224ccd3e1edbb1c77f81a9.png[/screen][screen]http://img12.lostpic.net/2018/04/15/c2efdb6b849f20c0ac16e42938e43831.png[/screen][screen]http://img12.lostpic.net/2018/04/15/3af176f4db31c88e1fc4f5c80eb2798f.png[/screen][screen]http://img12.lostpic.net/2018/04/15/68df1344e5608d78b6039723ef81e993.png[/screen][screen]http://img12.lostpic.net/2018/04/15/83320dd4b0d627632dd661fd254775ec.png[/screen][screen]http://img12.lostpic.net/2018/04/15/dae7f5ec4ccaafdb7a8d653848c76a7b.png[/screen][screen]http://img12.lostpic.net/2018/04/15/2e1b58e92fefa082fffe1b24d92a43b3.png[/screen]Свернуть


    Инфо-файл
    Общее
    Уникальный идентификатор                 : 197792684131202379581171087195141808364 (0x94CD7C3D98EB8037ABA0CB6002DFA0EC)
    Полное имя                               : Вспышка.1984.WEB-DL.1080p.mkv
    Формат                                   : Matroska
    Версия формата                           : Version 2
    Размер файла                             : 9,56 Гбайт
    Продолжительность                        : 1 ч. 32 м.
    Режим общего битрейта                    : Переменный
    Общий поток                              : 14,7 Мбит/сек
    Дата кодирования                         : UTC 2018-04-15 10:40:36
    Программа кодирования                    : mkvmerge v5.8.0 ("No Sleep / Pillow") built on Sep  2 2012 15:37:04
    Библиотека кодирования                   : libebml v1.2.3 + libmatroska v1.3.0

    Видео
    Идентификатор                            : 1
    Формат                                   : AVC
    Формат/Информация                        : Advanced Video Codec
    Профиль формата                          : High@L4
    Настройки формата                        : CABAC / 4 Ref Frames
    Параметр CABAC формата                   : Да
    Параметр RefFrames формата               : 4 кадра
    Идентификатор кодека                     : V_MPEG4/ISO/AVC
    Продолжительность                        : 1 ч. 32 м.
    Вид битрейта                             : Переменный
    Битрейт                                  : 13,6 Мбит/сек
    Максимальный битрейт                     : 15,0 Мбит/сек
    Ширина                                   : 1920 пикселей
    Высота                                   : 1080 пикселей
    Соотношение сторон                       : 16:9
    Режим частоты кадров                     : Постоянный
    Частота кадров                           : 29,970 (30000/1001) кадров/сек
    Цветовое пространство                    : YUV
    Субдискретизация насыщенности            : 4:2:0
    Битовая глубина                          : 8 бит
    Тип развёртки                            : Прогрессивная
    Бит/(Пиксели*Кадры)                      : 0.219
    Размер потока                            : 8,85 Гбайт (93%)
    Язык                                     : English
    Default                                  : Да
    Forced                                   : Нет
    Цветовой диапазон                        : Limited
    Основные цвета                           : BT.709
    Характеристики трансфера                 : BT.709
    Коэффициенты матрицы                     : BT.709

    Аудио #1
    Идентификатор                            : 2
    Формат                                   : AC-3
    Формат/Информация                        : Audio Coding 3
    Идентификатор кодека                     : A_AC3
    Продолжительность                        : 1 ч. 32 м.
    Вид битрейта                             : Постоянный
    Битрейт                                  : 192 Кбит/сек
    Каналы                                   : 2 канала
    Расположение каналов                     : Front: L R
    Частота                                  : 48,0 КГц
    Частота кадров                           : 31,250 кадров/сек (1536 SPF)
    Битовая глубина                          : 16 бит
    Метод сжатия                             : С потерями
    Задержка видео                           : -1 мс.
    Размер потока                            : 128 Мбайт (1%)
    Заголовок                                : DUB
    Язык                                     : Russian
    По умолчанию                             : Да
    Принудительно                            : Нет

    Аудио #2
    Идентификатор                            : 3
    Формат                                   : AC-3
    Формат/Информация                        : Audio Coding 3
    Идентификатор кодека                     : A_AC3
    Продолжительность                        : 1 ч. 32 м.
    Вид битрейта                             : Постоянный
    Битрейт                                  : 192 Кбит/сек
    Каналы                                   : 2 канала
    Расположение каналов                     : Front: L R
    Частота                                  : 48,0 КГц
    Частота кадров                           : 31,250 кадров/сек (1536 SPF)
    Битовая глубина                          : 16 бит
    Метод сжатия                             : С потерями
    Задержка видео                           : -1 мс.
    Размер потока                            : 128 Мбайт (1%)
    Заголовок                                : AVO | А. Михалев
    Язык                                     : Russian
    По умолчанию                             : Нет
    Принудительно                            : Нет

    Аудио #3
    Идентификатор                            : 4
    Формат                                   : AC-3
    Формат/Информация                        : Audio Coding 3
    Идентификатор кодека                     : A_AC3
    Продолжительность                        : 1 ч. 32 м.
    Вид битрейта                             : Постоянный
    Битрейт                                  : 192 Кбит/сек
    Каналы                                   : 2 канала
    Расположение каналов                     : Front: L R
    Частота                                  : 48,0 КГц
    Частота кадров                           : 31,250 кадров/сек (1536 SPF)
    Битовая глубина                          : 16 бит
    Метод сжатия                             : С потерями
    Задержка видео                           : -1 мс.
    Размер потока                            : 128 Мбайт (1%)
    Заголовок                                : AVO | Л. Володарский
    Язык                                     : Russian
    По умолчанию                             : Нет
    Принудительно                            : Нет

    Аудио #4
    Идентификатор                            : 5
    Формат                                   : E-AC-3
    Формат/Информация                        : Enhanced Audio Coding 3
    Идентификатор кодека                     : A_EAC3
    Продолжительность                        : 1 ч. 32 м.
    Вид битрейта                             : Постоянный
    Битрейт                                  : 224 Кбит/сек
    Каналы                                   : 2 канала
    Расположение каналов                     : Front: L R
    Частота                                  : 48,0 КГц
    Частота кадров                           : 187,500 кадров/сек (256 SPF)
    Метод сжатия                             : С потерями
    Задержка видео                           : 28 мс.
    Размер потока                            : 149 Мбайт (2%)
    Заголовок                                : Original
    Язык                                     : English
    По умолчанию                             : Нет
    Принудительно                            : Нет

    Текст #1
    Идентификатор                            : 6
    Формат                                   : UTF-8
    Идентификатор кодека                     : S_TEXT/UTF8
    Идентификатор кодека/Информация          : UTF-8 Plain Text
    Язык                                     : English
    По умолчанию                             : Нет
    Принудительно                            : Нет

    Текст #2
    Идентификатор                            : 7
    Формат                                   : UTF-8
    Идентификатор кодека                     : S_TEXT/UTF8
    Идентификатор кодека/Информация          : UTF-8 Plain Text
    Заголовок                                : SDH
    Язык                                     : English
    По умолчанию                             : Нет
    Принудительно                            : Нет

    Меню
    00:00:00.000                             : en:Chapter 01
    00:07:49.511                             : en:Chapter 02
    00:14:41.797                             : en:Chapter 03
    00:24:04.568                             : en:Chapter 04
    00:29:08.372                             : en:Chapter 05
    00:34:30.694                             : en:Chapter 06
    00:41:46.671                             : en:Chapter 07
    00:48:10.346                             : en:Chapter 08
    00:57:50.342                             : en:Chapter 09
    01:02:42.467                             : en:Chapter 10
    01:08:02.453                             : en:Chapter 11
    01:20:17.771                             : en:Chapter 12
    01:30:01.730                             : en:Chapter 13Свернуть


    Дополнительная информация
    • Исходник видео WEB-DL Amazon.Свернуть


    Сборка: [img]http://i1.imageban.ru/out/2018/02/13/db08a675822da337df05f97bda2ce544.gif[/img]
    Похожие раздачи Искать похожие
    Инструкция по скачиванию
     1  Качаем uTorrent версии 2.0 и выше
     2  После установки, жмем выше под постером на ссылку Скачать [MediaGet] или Скачать .torrent
     3  Открываем скачанный файл через соответствующий клиент: MediaGet или uTorrent
     4  Ждем пока подключатся участники
     5  Качаем
    Комментарии о  Вспышка / Flashpoint | WEB-DL 1080p 
    Ближайшее в кино
    Вверх