• Игры для PS3
  • Игры для XBOX360
  • Игры для PC
  • Игры для PS2
  • Игры для PSP
  • Для телефонов
  • Музыка
  • Книги/Журналы
  • Обои
  •  
    Опрос
    Откуда Вы о нас узнали?
      0
    • От знакомых2,1,false,300,full
    • Из социальных сетей2,2,false,300,full
    • Из поисковых систем2,3,false,300,full
    • Другое2,4,false,300,full
    Статистика
    Загрузка...
    Стальная тревога! Незримая победа / Full Metal Panic! Invisible Victory [Серия 01 из 12] | HDTVRip 720p
    Статус  Проверено
    В закладки
    Модератор: Max

    Стальная тревога! Незримая победа / Full Metal Panic! Invisible Victory [Серия 01 из 12] | HDTVRip 720p [Сериалы 2018] скачать торрентом/torrent бесплатно

    Год выхода
    Категории
    Язык
    Закачал
    Аноним | 15 апреля в 16ч 22м 13с
    Раздел
    Отзывов
    0
    Раздают: 1 Качают: 0 Скачали: 29 Размер: 341.46 MB
    Инфо о раздаче | Благодарности |
    0/5
    0
    0 5 0
    Поддержи нас — расскажи друзьям!
    Orbitum
    Новый интернет-браузер Быстрее загружает сайты Экономит интернет—трафик Меняет оформление страницы ВК Блокирует всю рекламу на сайтах Загружает торренты как

    µTorrent

    клиент
    Объеденяет все твои чаты из соц. сетей в один Проигрывает твою музыку не заходя во ВКонтакте
    Скачать и многое другое... Подробности на сайте производителя
    Информация о фильме
    Название: Стальная тревога! Незримая победа
    Оригинальное название: Full Metal Panic! Invisible Victory
    Год выхода: 2018
    Жанр: приключения, фантастика, меха
    Режиссер: Накаяма Кацуити
    Художник: Киносита Рёка, Амада Тосиаки
    В ролях: Сэки Томокадзу, Юкино Сацуки, Кимура Икуэ, Морикава Тосиюки, Нацуки Рио, Ногами Юкана, Мики Синъитиро, Нэя Митико, Оцука Акио, Нисимура Томомити, Намикава Дайсукэ, Ямадзи Кадзухиро, Сугита Томокадзу, Утида Ая, Кисино Кадзухико, Кояма Рикия
    О фильме:
    Частная военная организация «Мифрил» стремится устранить мировой терроризм и остальные угрозы мирной жизни на Земле. Организации помогают «виспарды» — люди со сверхъестественными способностями.
    Соскэ Сагара солдат, работающий на «Мифрил». Он получил миссию по защите Канамэ Чидори. Девушка одна из «виспардов». Однако всё не так просто, ведь Соскэ совершенно не знаком с жизнью обычного школьника, ибо с детства принимал участие в военных действиях. И кто знает, что для него будет сложнее — выполнение своего задания или жизнь обычного человека?
    Прямое продолжение основного сюжета сериала.

    [img]http://s019.radikal.ru/i622/1702/d7/eada0eaecb30.gif[/img]
    World Art | MAL

    Страна: Япония
    Студия: Xebec
    Продолжительность: 00:24:30
    Язык: Русский, Японский
    Перевод: Любительский (многоголосый, закадровый)

    Файл
    Качество: HDTVRip
    Формат: MKV
    Кодек: H.264
    Аудио кодек: AAC
    Видео: 1280x720, 23.976 fps, 1600 kbps
    Аудио RUS: 48.0 kHz, AAC, 2 ch, 192 kbps - AniLibria
    Аудио JAP: 48.0 kHz, AAC, 2 ch, 192 kbps
    Субтитры: русские (встроенные надписи, ASS)
    Субтитры: русские (встроенные полный перевод, ASS)

    Озвучка

    Озвучивание: Cleo-chan, Hekomi, WhiteCrow, Gomer
    Тайминг и работа со звуком: Hidan




    Список серий
    01. Час Зеро


    MediaInfo
    General
    Format : Matroska
    Format version : Version 4 / Version 2
    File size : 341 MiB
    Duration : 24 min
    Overall bit rate : 1 948 kb/s
    Encoded date : UTC 2018-04-15 12:16:03
    Writing application : mkvmerge v8.3.0 ("Over the Horizon") 64bit
    Writing library : libebml v1.3.1 + libmatroska v1.4.2

    Video
    ID : 1
    Format : AVC
    Format/Info : Advanced Video Codec
    Format profile : Main@L4.1
    Format settings, CABAC : Yes
    Format settings, ReFrames : 4 frames
    Codec ID : V_MPEG4/ISO/AVC
    Duration : 24 min
    Bit rate : 1 564 kb/s
    Width : 1 280 pixels
    Height : 720 pixels
    Display aspect ratio : 16:9
    Frame rate mode : Constant
    Frame rate : 23.976 (24000/1001) FPS
    Color space : YUV
    Chroma subsampling : 4:2:0
    Bit depth : 8 bits
    Scan type : Progressive
    Bits/(Pixel*Frame) : 0.071
    Stream size : 274 MiB (80%)
    Writing library : x264 core 155 r2867+82 a249126 t_mod_Custom_2 [8-bit@all X86_64]
    Encoding settings : cabac=1 / ref=3 / deblock=1:0:0 / analyse=0x1:0x111 / me=hex / subme=7 / psy=1 / fade_compensate=0.00 / psy_rd=1.00:0.00 / mixed_ref=1 / me_range=16 / chroma_me=1 / trellis=1 / 8x8dct=0 / cqm=0 / deadzone=21,11 / fast_pskip=1 / chroma_qp_offset=-2 / threads=18 / lookahead_threads=3 / sliced_threads=0 / nr=0 / decimate=1 / interlaced=0 / bluray_compat=0 / constrained_intra=0 / fgo=0 / bframes=3 / b_pyramid=2 / b_adapt=1 / b_bias=0 / direct=1 / weightb=1 / open_gop=0 / weightp=2 / keyint=240 / keyint_min=1 / scenecut=40 / intra_refresh=0 / rc_lookahead=40 / rc=crf / mbtree=1 / crf=20.0000 / qcomp=0.60 / qpmin=0:0:0 / qpmax=69:69:69 / qpstep=4 / ip_ratio=1.40 / aq=1:1.50 / aq-sensitivity=10.00 / aq-factor=1.00:1.00:1.00 / aq2=0 / aq3=0
    Language : Japanese
    Default : Yes
    Forced : No
    Color range : Limited
    Color primaries : BT.709
    Transfer characteristics : BT.709
    Matrix coefficients : BT.709

    Audio #1
    ID : 2
    Format : AAC
    Format/Info : Advanced Audio Codec
    Format profile : LC
    Codec ID : A_AAC
    Duration : 24 min
    Bit rate : 192 kb/s
    Channel(s) : 2 channels
    Channel positions : Front: L R
    Sampling rate : 48.0 kHz
    Frame rate : 46.875 FPS (1024 spf)
    Compression mode : Lossy
    Stream size : 33.7 MiB (10%)
    Title : AniLibria
    Language : Russian
    Default : Yes
    Forced : No

    Audio #2
    ID : 3
    Format : AAC
    Format/Info : Advanced Audio Codec
    Format profile : LC
    Codec ID : A_AAC
    Duration : 24 min
    Bit rate : 192 kb/s
    Channel(s) : 2 channels
    Channel positions : Front: L R
    Sampling rate : 48.0 kHz
    Frame rate : 46.875 FPS (1024 spf)
    Compression mode : Lossy
    Stream size : 33.0 MiB (10%)
    Title : Original
    Language : Japanese
    Default : No
    Forced : No

    Text #1
    ID : 4
    Format : ASS
    Codec ID : S_TEXT/ASS
    Codec ID/Info : Advanced Sub Station Alpha
    Duration : 24 min
    Bit rate : 21 b/s
    Count of elements : 38
    Compression mode : Lossless
    Stream size : 3.91 KiB (0%)
    Title : Надписи
    Language : Russian
    Default : Yes
    Forced : No

    Text #2
    ID : 5
    Format : ASS
    Codec ID : S_TEXT/ASS
    Codec ID/Info : Advanced Sub Station Alpha
    Duration : 24 min
    Bit rate : 212 b/s
    Count of elements : 468
    Compression mode : Lossless
    Stream size : 37.9 KiB (0%)
    Title : Полные субтитры
    Language : Russian
    Default : No
    Forced : No
    Еще похожие »

    Как скачать?
    1. Качаем UTorrent версии 2.0 и выше отсюда
    2. После установки, жмем на ссылку Скачать торрент.
    3. Открываем его через utorrent.
    4. Ждем пока подключатся участники.
    5. Качаем.


    Комментарии о Стальная тревога! Незримая победа / Full Metal Panic! Invisible Victory [Серия 01 из 12] | HDTVRip 720p
    Добавлять комментарии могут только зарегистрированные пользователи

    Зарегистрироваться или Войти


    Ближайшее в кино
    • Привидение дата выхода 26 апреля 2018Привидение
      Дата выхода: 26 апреля 2018
    • 1045590|Правда или действие|26 апреля 2018|200|300Правда или действие
      Дата выхода: 26 апреля 2018
    • 841470|Смешарики. Дежавю|26 апреля 2018|200|300Смешарики. Дежавю
      Дата выхода: 26 апреля 2018
    • 1046545|Танки|26 апреля 2018|200|300Танки
      Дата выхода: 26 апреля 2018
    • 1027311|Дыши во мгле|26 апреля 2018|200|300Дыши во мгле
      Дата выхода: 26 апреля 2018
    • 959260|Миссис Хайд|26 апреля 2018|200|300Миссис Хайд
      Дата выхода: 26 апреля 2018
    • 845128|Я заберу твои деньги|26 апреля 2018|200|300Я заберу твои деньги
      Дата выхода: 26 апреля 2018
    • 1112036|Лицо|26 апреля 2018|200|300Лицо
      Дата выхода: 26 апреля 2018
    • 1076322|Великолепная|26 апреля 2018|200|300Великолепная
      Дата выхода: 26 апреля 2018
    • 1110934|Золушка|28 апреля 2018|200|300Золушка
      Дата выхода: 28 апреля 2018
    • 1115701|МУЛЬТ в кино. Выпуск №74. Планета Май!|28 апреля 2018|200|300МУЛЬТ в кино. Выпуск №74. Планета Май!
      Дата выхода: 28 апреля 2018
    • 928533|Папа-мама гусь|1 мая 2018|200|300Папа-мама гусь
      Дата выхода: 1 мая 2018
    • 843649|Мстители: Война бесконечности|3 мая 2018|200|300Мстители: Война бесконечности
      Дата выхода: 3 мая 2018
    • 939785|Остров собак|3 мая 2018|200|300Остров собак
      Дата выхода: 3 мая 2018
    • 905031|Собибор|3 мая 2018|200|300Собибор
      Дата выхода: 3 мая 2018
    Вверх