• Игры для PS4
  • Игры для PS3
  • Игры для XBOX360
  • Игры для PC
  • Игры для PS2
  • Игры для PSP
  • Для телефонов
  • Музыка
  • Книги / Журналы
  • Обои
  • Опрос
    Удобен ли сайт в использовании?
      0
    • Очень удобен, все понятно1,1,false,300,full
    • Удобен1,2,false,300,full
    • Средне1,3,false,300,full
    • Неудобен, трудно ориентироваться1,4,false,300,full
    • Совсем неудобен1,5,false,300,full
    Статистика
    Всего онлайн -
    Гостей -
    Пользователей -
    Короли трекера
    
    Благодарности () Закрыть
    Быстрее загружает сайты Экономит интернет—трафик Меняет оформление страницы ВК Блокирует всю рекламу на сайтах Загружает торренты как µTorrent клиент Объеденяет все твои чаты из соц. сетей в один Проигрывает твою музыку не заходя во ВКонтакте
    Новый интернет-браузер
    Оrbitum
    Скачать
    и многое другое... Подробности на сайте производителя
    Информация о фильме
    Название: Убийство Джоан
    Оригинальное название: Killing Joan
    Год выхода: 2018
    Жанр: Ужасы, боевик, триллер, драма, криминал
    Режиссер: Тодд Барту
    В ролях: Джэми Бернадетт, Эрик Од, Дэвид Кэри Фостер, Дэниэл Гарднер, Дион Баско, Каспер Андреас, Катарина Уотерс, Эрин О Брайэн и другие
    О фильме:
    Джоан работает на местного мафиози, который известен своей безжалостностью и диким нравом. После того, как на ее жизнь покушаются ее же коллеги, героиня решает разобраться с обидчиками. Девушка пойдет на всё, чтобы отомстить и устроить настоящую кровавую бойню.



    Страна: США, TODFILM
    Продолжительность: 01:41:51
    Перевод: Любительский (двухголосый закадровый) | HiWay Grope

    Файл
    Кодек: XviD
    Качество: WEBRip
    Видео: 720x400, 23.976 fps, ~1495 kbps, 0.22 bit/pixel
    Звук:
    Аудио rus: AC3, 48 kHz, 6 ch, 384 Kbps
    Субтитры: отсутствуют

    Реклама: присутствует

    Семпл

    ВНИМАНИЕ! Присутствует ненормативная лексика

    MediaInfo

    General
    Complete name                            : E:Killing.Joan.2018.WEBRip.HiWayGropeKilling.Joan.2018.WEBRip.HiWayGrope.avi
    Format                                   : AVI
    Format/Info                              : Audio Video Interleave
    File size                                : 1.34 GiB
    Duration                                 : 1h 41mn
    Overall bit rate                         : 1 889 Kbps
    Writing application                      : VirtualDubMod 1.5.10.3 (build 2550/release)
    Writing library                          : VirtualDubMod build 2550/release

    Video
    ID                                       : 0
    Format                                   : MPEG-4 Visual
    Format profile                           : Advanced Simple@L5
    Format settings, BVOP                    : 1
    Format settings, QPel                    : No
    Format settings, GMC                     : No warppoints
    Format settings, Matrix                  : Default (MPEG)
    Codec ID                                 : XVID
    Codec ID/Hint                            : XviD
    Duration                                 : 1h 41mn
    Bit rate                                 : 1 496 Kbps
    Width                                    : 720 pixels
    Height                                   : 400 pixels
    Display aspect ratio                     : 16:9
    Frame rate                               : 23.976 (23976/1000) fps
    Color space                              : YUV
    Chroma subsampling                       : 4:2:0
    Bit depth                                : 8 bits
    Scan type                                : Progressive
    Compression mode                         : Lossy
    Bits/(Pixel*Frame)                       : 0.217
    Stream size                              : 1.06 GiB (79%)
    Writing library                          : XviD 73

    Audio
    ID                                       : 1
    Format                                   : AC-3
    Format/Info                              : Audio Coding 3
    Mode extension                           : CM (complete main)
    Format settings, Endianness              : Big
    Codec ID                                 : 2000
    Duration                                 : 1h 41mn
    Bit rate mode                            : Constant
    Bit rate                                 : 384 Kbps
    Channel(s)                               : 6 channels
    Channel positions                        : Front: L C R, Side: L R, LFE
    Sampling rate                            : 48.0 KHz
    Frame rate                               : 31.250 fps (1536 spf)
    Compression mode                         : Lossy
    Stream size                              : 280 MiB (20%)
    Alignment                                : Split accross interleaves
    Interleave, duration                     : 42 ms (1.00 video frame)
    Interleave, preload duration             : 500 ms

    Свернуть


    Похожие раздачи Искать похожие
    Инструкция по скачиванию
     1  Качаем uTorrent версии 2.0 и выше
     2  После установки, жмем выше под постером на ссылку Скачать [MediaGet] или Скачать .torrent
     3  Открываем скачанный файл через соответствующий клиент: MediaGet или uTorrent
     4  Ждем пока подключатся участники
     5  Качаем
    Комментарии о  Убийство Джоан / Killing Joan | WEBRip 
    Ближайшее в кино
    Вверх