• Игры для PS3
  • Игры для XBOX360
  • Игры для PC
  • Игры для PS2
  • Игры для PSP
  • Для телефонов
  • Музыка
  • Книги/Журналы
  • Обои
  •  
    Опрос
    Откуда Вы о нас узнали?
      0
    • От знакомых2,1,false,300,full
    • Из социальных сетей2,2,false,300,full
    • Из поисковых систем2,3,false,300,full
    • Другое2,4,false,300,full
    Статистика
    Загрузка...
    Любимый во Франксе / Darling in the Franxx [Серии 01-14 из 24] | WEBRip 720p
    Статус  Проверено
    В закладки
    Модератор: Max

    Любимый во Франксе / Darling in the Franxx [Серии 01-14 из 24] | WEBRip 720p [Фильмы 2018] скачать торрентом/torrent бесплатно

    Год выхода
    Язык
    Закачал
    Max | 15 апреля в 18ч 25м 43с
    Раздел
    Отзывов
    0
    Раздают: 6 Качают: 13 Скачали: 20 Размер: 5.64 GB
    Инфо о раздаче | Благодарности |
    0/5
    0
    0 5 0
    Поддержи нас — расскажи друзьям!
    Orbitum
    Новый интернет-браузер Быстрее загружает сайты Экономит интернет—трафик Меняет оформление страницы ВК Блокирует всю рекламу на сайтах Загружает торренты как

    µTorrent

    клиент
    Объеденяет все твои чаты из соц. сетей в один Проигрывает твою музыку не заходя во ВКонтакте
    Скачать и многое другое... Подробности на сайте производителя
    Информация о фильме
    Название: Любимый во Франксе
    Оригинальное название: Darling in the FranXX
    Год выхода: 2018
    Жанр: приключения, фантастика, меха
    Режиссер: Нисигори Ацуси
    Художник: Хираянаги Сатоси, Сиодзава Ёсинори
    В ролях: Уэмура Юто, Томацу Харука, Итиносэ Кана, Умэхара Юйтиро, Ямасита Нанами, Тамура Муцуми, Хаями Саори, Гото Хироки, Исигами Сидзука, Итикава Аой, Иноуэ Марина, Кониси Кацуюки, Хориути Кэнъю
    О фильме:
    Далекое будущее. Земля в руинах, и на остатки человечества наводят ужас таинственные гигантские формы жизни, известные как кёрю — «ревущие драконы». Чтобы противостоять им, люди создали передвижное фортификационное сооружение, названное Плантацией, где растут и обучаются юные пилоты роботов Франкс.
    Единственная цель, ради которой живут эти дети, — уничтожение кёрю после прохождения специальной подготовки. Но чтобы управлять роботом — необходимо двое: мужчина и женщина, «тычинка» и «пестик». И если один не справляется, статуса пилота лишаются оба, что и для того и для другого значит ни много ни мало утратить смысл существования.
    Хиро считали одаренным. До тех пор, пока он не провалился на экзамене вместе со своей напарницей. Птица, которая никогда не взлетит, — так чувствовал себя мальчик с того времени и даже не догадывался, что скоро встретит человека с похожей судьбой...
    «Убийца напарников», рогатая девчонка, в жилах которой течет кровь кёрю. «Станешь ли ты моим милым?» — спросила она не то шутки ради, не то — всерьез. И для Хиро вдруг снова нашлось место в мире...

    [img]http://imdb.snick.ru/ratefor/02/tt7865090.png[/img][img]http://s019.radikal.ru/i622/1702/d7/eada0eaecb30.gif[/img]
    World Art | MAL

    Страна: Япония
    Студия: Trigger & A-1 Pictures Inc.
    Продолжительность: 00:24:00
    Язык: Русский, Японский
    Перевод: Любительский (многоголосый, закадровый)

    Файл
    Качество: WEBRip
    Формат: MKV
    Кодек: H.264
    Аудио кодек: AAC
    Видео: 1280x720, 23.976 fps, 1800 kbps
    Аудио RUS: 48.0 kHz, AAC, 2 ch, 128 kbps - AniDub (01-13)
    Аудио RUS: 48.0 kHz, AAC, 2 ch, 192 kbps - SHIZA Project (01-13)
    Аудио RUS: 48.0 kHz, AAC, 2 ch, 192 kbps - AniLibria
    Аудио JAP: 48.0 kHz, AAC, 2 ch, 128 kbps
    Субтитры: русские (встроенные надписи, ASS)
    Субтитры: русские (встроенные полный перевод, ASS) - SovetRomantica
    Субтитры: русские (встроенные полный перевод, ASS) - AniLibria

    Озвучка

    Озвучивание: Oni, Jade, Ket
    Перевод: Coronzona
    Тайминг и работа со звуком: CaliBri

    Озвучивание: Dancel, nDrOiDze, Viki, OkanaTsoy
    Перевод: MedusaSub
    Тайминг и работа со звуком: PunksPlay

    Озвучивание: Anzen Cleo-chan HectoR Hekomi MyAska Sharon
    Перевод: ElViS
    Тайминг и работа со звуком: Z3nC0rZ




    Список серий
    01. Один и одинокий
    02. Что значит связь
    03. Сражающаяся кукла
    04. Взмахи крыльев
    05. Твои шипы и мой символ
    06. Милый во Франксе
    07. Мораторий падающей звезды
    08. Мальчики и девочки
    09. Треугольная бомба
    10. Вечный город
    11. Обмен партнёрами
    12. Сад, где всё началось
    13. Принц и девушка-демон
    14. Наказание и Признание


    MediaInfo
    General
    Format : Matroska
    Format version : Version 4 / Version 2
    File size : 406 MiB
    Duration : 24 min
    Overall bit rate : 2 360 kb/s
    Encoded date : UTC 2018-03-18 11:10:38
    Writing application : mkvmerge v8.3.0 ("Over the Horizon") 64bit
    Writing library : libebml v1.3.1 + libmatroska v1.4.2

    Video
    ID : 1
    Format : AVC
    Format/Info : Advanced Video Codec
    Format profile : High@L4
    Format settings, CABAC : Yes
    Format settings, ReFrames : 6 frames
    Codec ID : V_MPEG4/ISO/AVC
    Duration : 24 min
    Bit rate : 1 776 kb/s
    Width : 1 280 pixels
    Height : 720 pixels
    Display aspect ratio : 16:9
    Frame rate mode : Variable
    Frame rate : 23.976 (23976/1000) FPS
    Color space : YUV
    Chroma subsampling : 4:2:0
    Bit depth : 8 bits
    Scan type : Progressive
    Bits/(Pixel*Frame) : 0.080
    Stream size : 304 MiB (75%)
    Writing library : x264 core 120 r2120 0c7dab9
    Encoding settings : cabac=1 / ref=6 / deblock=1:1:1 / analyse=0x3:0x113 / me=umh / subme=8 / psy=1 / psy_rd=0.40:0.00 / mixed_ref=1 / me_range=16 / chroma_me=1 / trellis=1 / 8x8dct=1 / cqm=0 / deadzone=21,11 / fast_pskip=1 / chroma_qp_offset=-2 / threads=4 / sliced_threads=0 / nr=0 / decimate=1 / interlaced=0 / bluray_compat=0 / constrained_intra=0 / bframes=3 / b_pyramid=2 / b_adapt=2 / b_bias=0 / direct=3 / weightb=1 / open_gop=0 / weightp=2 / keyint=250 / keyint_min=23 / scenecut=40 / intra_refresh=0 / rc_lookahead=50 / rc=2pass / mbtree=1 / bitrate=1776 / ratetol=1.0 / qcomp=0.60 / qpmin=0 / qpmax=69 / qpstep=4 / cplxblur=20.0 / qblur=0.5 / vbv_maxrate=3552 / vbv_bufsize=8880 / nal_hrd=none / ip_ratio=1.40 / aq=1:0.60
    Default : Yes
    Forced : No

    Audio #1
    ID : 2
    Format : AAC
    Format/Info : Advanced Audio Codec
    Format profile : LC
    Codec ID : A_AAC
    Duration : 24 min
    Bit rate : 128 kb/s
    Channel(s) : 2 channels
    Channel positions : Front: L R
    Sampling rate : 48.0 kHz
    Frame rate : 46.875 FPS (1024 spf)
    Compression mode : Lossy
    Stream size : 22.0 MiB (5%)
    Title : AniDub
    Language : Russian
    Default : Yes
    Forced : No

    Audio #2
    ID : 3
    Format : AAC
    Format/Info : Advanced Audio Codec
    Format profile : LC
    Codec ID : A_AAC
    Duration : 24 min
    Bit rate : 144 kb/s
    Channel(s) : 2 channels
    Channel positions : Front: L R
    Sampling rate : 48.0 kHz
    Frame rate : 46.875 FPS (1024 spf)
    Compression mode : Lossy
    Delay relative to video : 9 ms
    Stream size : 24.6 MiB (6%)
    Title : SHIZA Project
    Language : Russian
    Default : No
    Forced : No

    Audio #3
    ID : 4
    Format : AAC
    Format/Info : Advanced Audio Codec
    Format profile : LC
    Codec ID : A_AAC
    Duration : 24 min
    Bit rate : 192 kb/s
    Channel(s) : 2 channels
    Channel positions : Front: L R
    Sampling rate : 48.0 kHz
    Frame rate : 46.875 FPS (1024 spf)
    Compression mode : Lossy
    Stream size : 32.5 MiB (8%)
    Title : AniLibria
    Language : Russian
    Default : No
    Forced : No

    Audio #4
    ID : 5
    Format : AAC
    Format/Info : Advanced Audio Codec
    Format profile : LC
    Codec ID : A_AAC
    Duration : 24 min
    Bit rate : 128 kb/s
    Channel(s) : 2 channels
    Channel positions : Front: L R
    Sampling rate : 44.1 kHz
    Frame rate : 43.066 FPS (1024 spf)
    Compression mode : Lossy
    Stream size : 22.0 MiB (5%)
    Title : Original
    Language : Japanese
    Default : No
    Forced : No

    Text #1
    ID : 6
    Format : ASS
    Codec ID : S_TEXT/ASS
    Codec ID/Info : Advanced Sub Station Alpha
    Duration : 22 min
    Bit rate : 14 b/s
    Count of elements : 16
    Compression mode : Lossless
    Stream size : 2.41 KiB (0%)
    Title : Надписи
    Language : Russian
    Default : Yes
    Forced : No

    Text #2
    ID : 7
    Format : ASS
    Codec ID : S_TEXT/ASS
    Codec ID/Info : Advanced Sub Station Alpha
    Duration : 23 min
    Bit rate : 144 b/s
    Count of elements : 375
    Compression mode : Lossless
    Stream size : 25.3 KiB (0%)
    Title : Полные субтитры - SovetRomantica
    Language : Russian
    Default : No
    Forced : No

    Text #3
    ID : 8
    Format : ASS
    Codec ID : S_TEXT/ASS
    Codec ID/Info : Advanced Sub Station Alpha
    Duration : 23 min
    Bit rate : 166 b/s
    Count of elements : 357
    Compression mode : Lossless
    Stream size : 29.2 KiB (0%)
    Title : Полные субтитры - AniLibria
    Language : Russian
    Default : No
    Forced : No
    Еще похожие »

    Как скачать?
    1. Качаем UTorrent версии 2.0 и выше отсюда
    2. После установки, жмем на ссылку Скачать торрент.
    3. Открываем его через utorrent.
    4. Ждем пока подключатся участники.
    5. Качаем.


    Комментарии о Любимый во Франксе / Darling in the Franxx [Серии 01-14 из 24] | WEBRip 720p
    Добавлять комментарии могут только зарегистрированные пользователи

    Зарегистрироваться или Войти


    Ближайшее в кино
    • Привидение дата выхода 26 апреля 2018Привидение
      Дата выхода: 26 апреля 2018
    • 1045590|Правда или действие|26 апреля 2018|200|300Правда или действие
      Дата выхода: 26 апреля 2018
    • 841470|Смешарики. Дежавю|26 апреля 2018|200|300Смешарики. Дежавю
      Дата выхода: 26 апреля 2018
    • 1046545|Танки|26 апреля 2018|200|300Танки
      Дата выхода: 26 апреля 2018
    • 1027311|Дыши во мгле|26 апреля 2018|200|300Дыши во мгле
      Дата выхода: 26 апреля 2018
    • 959260|Миссис Хайд|26 апреля 2018|200|300Миссис Хайд
      Дата выхода: 26 апреля 2018
    • 845128|Я заберу твои деньги|26 апреля 2018|200|300Я заберу твои деньги
      Дата выхода: 26 апреля 2018
    • 1112036|Лицо|26 апреля 2018|200|300Лицо
      Дата выхода: 26 апреля 2018
    • 1076322|Великолепная|26 апреля 2018|200|300Великолепная
      Дата выхода: 26 апреля 2018
    • 1110934|Золушка|28 апреля 2018|200|300Золушка
      Дата выхода: 28 апреля 2018
    • 1115701|МУЛЬТ в кино. Выпуск №74. Планета Май!|28 апреля 2018|200|300МУЛЬТ в кино. Выпуск №74. Планета Май!
      Дата выхода: 28 апреля 2018
    • 928533|Папа-мама гусь|1 мая 2018|200|300Папа-мама гусь
      Дата выхода: 1 мая 2018
    • 843649|Мстители: Война бесконечности|3 мая 2018|200|300Мстители: Война бесконечности
      Дата выхода: 3 мая 2018
    • 939785|Остров собак|3 мая 2018|200|300Остров собак
      Дата выхода: 3 мая 2018
    • 905031|Собибор|3 мая 2018|200|300Собибор
      Дата выхода: 3 мая 2018
    Вверх