• Игры для PS4
  • Игры для PS3
  • Игры для XBOX360
  • Игры для PC
  • Игры для PS2
  • Игры для PSP
  • Для телефонов
  • Музыка
  • Книги / Журналы
  • Обои
  • Опрос
    Откуда Вы о нас узнали?
      0
    • От знакомых2,1,false,300,full
    • Из социальных сетей2,2,false,300,full
    • Из поисковых систем2,3,false,300,full
    • Другое2,4,false,300,full
    Статистика
    Всего онлайн -
    Гостей -
    Пользователей -
    Короли трекера
    Благодарности () Закрыть
    Информация о фильме
    Название: Игра в классики
    Оригинальное название: Hopscotch
    Год выхода: 1980
    Жанр: комедия, приключения
    Режиссер: Роналд Ним
    В ролях: Уолтер Мэттау, Гленда Джексон, Сэм Уотерстон, Нед Битти, Херберт Лом, Дэвид Мэттоу, Джордж Бейкер, Айвор Робертс, Люси Сароян, Северн Дарден, Джордж Правда, Жаклин Хайд, Майк Гвилим, Терри Бивер, Рэй Чарлсон

    Описание: Своевольный шпион Кендиг кажется новому молодому начальнику слишком опасным. Однако, пригрозив перевести его на «более спокойную» должность, шеф своими руками поджигает фитиль. Кендигу приходит на ум игра, которая взбаламутит все разведки мира. С помощью своей давней подруги он готовит к выходу книгу…



    Страна: США
    Продолжительность: 01:45:18
    Перевод: Авторский (одноголосый закадровый) Владимир Сонькин
    Субтитры: английские
    Оригинальная аудиодорожка: английский

    Файл
    Качество: BDRemux 1080р
    Видео: AVC / 1920x1080 / 16:9 / 23.976 fps / 34978 kbps / High@L4.1
    Аудио 1: Rus / AC3 / 48.0 KHz / 2.0 / 192 kbps / Владимир Сонькин
    Аудио 2: Eng / FLAC / 48.0 KHz / 1.0 / 641 kbps / 24 bit

    Скриншоты
    [screen]http://img12.lostpic.net/2018/04/15/1226df838963dbbe9012f6f3689173be.png[/screen][screen]http://img12.lostpic.net/2018/04/15/7f199c114157c871996e3d0af7d1e031.png[/screen][screen]http://img12.lostpic.net/2018/04/15/b91639dc42ac30571dd4eac30ba1c7cc.png[/screen]Свернуть


    MediaInfo
    Общее
    Уникальный идентификатор : 204098045058097793558089509195584005179 (0x998BDA894100C6969A35A640E982643B)
    Полное имя : Hopscotch.1980.Criterion.Collection.BDRemux.1080p.mkv
    Формат : Matroska
    Версия формата : Version 4 / Version 2
    Размер файла : 26,3 Гбайт
    Продолжительность : 1 ч. 45 м.
    Режим общего битрейта : Переменный
    Общий поток : 35,8 Мбит/сек
    Название фильма : Hopscotch.1980.Criterion.Collection.BDRemux.1080p-porvaliparus
    Дата кодирования : UTC 2017-09-06 10:35:18
    Программа кодирования : mkvmerge v15.0.0 ("Duel with the Devil") 64-bit
    Библиотека кодирования : libebml v1.3.5 + libmatroska v1.4.5

    Видео
    Идентификатор : 1
    Формат : AVC
    Формат/Информация : Advanced Video Codec
    Профиль формата : High@L4.1
    Параметр CABAC формата : Да
    Параметр ReFrames формата : 4 кадра
    Идентификатор кодека : V_MPEG4/ISO/AVC
    Продолжительность : 1 ч. 45 м.
    Вид битрейта : Переменный
    Битрейт : 35,0 Мбит/сек
    Максимальный битрейт : 37,0 Мбит/сек
    Ширина : 1920 пикселей
    Высота : 1080 пикселей
    Соотношение сторон : 16:9
    Режим частоты кадров : Постоянный
    Частота кадров : 23,976 (24000/1001) кадра/сек
    Цветовое пространство : YUV
    Субдискретизация насыщенности : 4:2:0
    Битовая глубина : 8 бит
    Тип развёртки : Прогрессивная
    Бит/(Пиксели*Кадры) : 0.704
    Размер потока : 25,7 Гбайт (98%)
    Заголовок : Hopscotch.1980.Criterion.Collection.BDRemux.1080p
    Default : Да
    Forced : Нет

    Аудио #1
    Идентификатор : 2
    Формат : AC-3
    Формат/Информация : Audio Coding 3
    Параметр Endianness формата : Big
    Идентификатор кодека : A_AC3
    Продолжительность : 1 ч. 45 м.
    Вид битрейта : Постоянный
    Битрейт : 192 Кбит/сек
    Каналы : 2 канала
    Расположение каналов : Front: L R
    Частота : 48,0 КГц
    Частота кадров : 31,250 кадров/сек (1536 spf)
    Битовая глубина : 16 бит
    Метод сжатия : С потерями
    Размер потока : 145 Мбайт (1%)
    Заголовок : AVO [В. Сонькин]
    Язык : Russian
    Default : Да
    Forced : Нет

    Аудио #2
    Идентификатор : 3
    Формат : FLAC
    Формат/Информация : Free Lossless Audio Codec
    Идентификатор кодека : A_FLAC
    Продолжительность : 1 ч. 45 м.
    Вид битрейта : Переменный
    Битрейт : 641 Кбит/сек
    Каналы : 1 канал
    Расположение каналов : Front: C
    Частота : 48,0 КГц
    Частота кадров : 11,719 кадров/сек (4096 spf)
    Битовая глубина : 24 бит
    Размер потока : 483 Мбайт (2%)
    Библиотека кодирования : libFLAC 1.2.1 (UTC 2007-09-17)
    Язык : English
    Default : Нет
    Forced : Нет

    Текст
    Идентификатор : 4
    Формат : UTF-8
    Идентификатор кодека : S_TEXT/UTF8
    Идентификатор кодека/Информация : UTF-8 Plain Text
    Продолжительность : 1 ч. 41 м.
    Битрейт : 71 бит/сек
    ElementCount : 1302
    Размер потока : 53,0 Кбайт (0%)
    Язык : English
    Default : Нет
    Forced : Нет

    Меню
    00:00:00.000 : en:00:00:00.000
    00:04:56.379 : en:00:04:56.379
    00:11:41.326 : en:00:11:41.326
    00:20:29.687 : en:00:20:29.687
    00:27:52.087 : en:00:27:52.087
    00:37:45.597 : en:00:37:45.597
    00:48:03.130 : en:00:48:03.130
    00:58:58.744 : en:00:58:58.744
    01:05:34.889 : en:01:05:34.889
    01:12:18.376 : en:01:12:18.376
    01:23:52.861 : en:01:23:52.861
    01:29:22.315 : en:01:29:22.315
    01:40:02.288 : en:01:40:02.288Свернуть
    Похожие раздачи Искать похожие
    Инструкция по скачиванию
     1  Качаем uTorrent версии 2.0 и выше
     2  После установки, жмем выше под постером на ссылку Скачать [MediaGet] или Скачать .torrent
     3  Открываем скачанный файл через соответствующий клиент: MediaGet или uTorrent
     4  Ждем пока подключатся участники
     5  Качаем
    Комментарии о  Игра в классики / Hopscotch | BDRemux 1080p 
    Ближайшее в кино
    Вверх