• Игры для PS3
  • Игры для XBOX360
  • Игры для PC
  • Игры для PS2
  • Игры для PSP
  • Для телефонов
  • Музыка
  • Книги/Журналы
  • Обои
  •  
    Опрос
    Откуда Вы о нас узнали?
      0
    • От знакомых2,1,false,300,full
    • Из социальных сетей2,2,false,300,full
    • Из поисковых систем2,3,false,300,full
    • Другое2,4,false,300,full
    Статистика
    Загрузка...
    СМС для тебя / SMS für Dich | HDRip
    Статус  Проверено
    В закладки
    Модератор: Max

    СМС для тебя / SMS für Dich | HDRip [Фильмы 2016] скачать торрентом/torrent бесплатно

    Год выхода
    Категории
    Язык
    Закачал
    Max | 15 апреля в 19ч 55м 38с
    Раздел
    Отзывов
    0
    Раздают: 3 Качают: 5 Скачали: 3 Размер: 695.21 MB
    Инфо о раздаче | Благодарности |
    0/5
    0
    0 5 0
    Поддержи нас — расскажи друзьям!
    Orbitum
    Новый интернет-браузер Быстрее загружает сайты Экономит интернет—трафик Меняет оформление страницы ВК Блокирует всю рекламу на сайтах Загружает торренты как

    µTorrent

    клиент
    Объеденяет все твои чаты из соц. сетей в один Проигрывает твою музыку не заходя во ВКонтакте
    Скачать и многое другое... Подробности на сайте производителя
    Информация о фильме
    Название: СМС для тебя
    Оригинальное название: SMS für Dich
    Год выхода: 2016
    Жанр: драма, мелодрама
    Режиссер: Каролина Херфурт
    В ролях: Каролина Херфурт, Фридрих Мюке, Нора Чирнер, Фредерик Лау, Катя Риман, Энисса Амани, Фридерике Кемптер, Самуэль Финци, Уве Пройсс

    О фильме: Клара вот уже два года скорбит по своей большой любви. Не желая мириться с утратой, девушка посылает сообщения романтического характера на старый телефон своего умершего парня. Она и не догадывается, что его номер теперь принадлежит другому человеку, журналисту Марку. Полностью очарованный текстами сообщений, при поддержке своего друга, он пускается на поиски неизвестной отправительницы...

    [img]http://i89.fastpic.ru/big/2017/0502/69/67d521d70873d2399dac9e7d05d0b369.png[/img]

    Страна: Германия
    Студия: Hellinger / Doll Filmproduktion
    Продолжительность: 01:47:31
    Перевод: Профессиональный (многоголосый, закадровый) | СВ Студия
    Субтитры: Нет

    Файл
    Кодек: XviD
    Качество: HDRip
    Видео: 688x288 (2.39:1), 23.976 fps, XviD build 73 ~766 kbps avg, 0.16 bit/pixel
    Звук: 48 kHz, MPEG Layer 3, 2 ch, ~128.00 kbps avg

    MediaInfo
    General
    Complete name               : SMS.Fur.Dich.2016.HDRip.ot.Portablius.avi
    Format                      : AVI
    Format/Info                 : Audio Video Interleave
    File size                   : 695 MiB
    Duration                    : 1 h 47 min
    Overall bit rate            : 904 kb/s
    Writing application         : VirtualDubMod 1.5.10.3 | www.virtualdub-fr.org || (build 2550/release)
    Writing library             : VirtualDubMod build 2550/release

    Video
    ID                          : 0
    Format                      : MPEG-4 Visual
    Format profile              : Advanced Simple@L5
    Format settings, BVOP       : 1
    Format settings, QPel       : No
    Format settings, GMC        : No warppoints
    Format settings, Matrix     : Custom
    Codec ID                    : XVID
    Codec ID/Hint               : XviD
    Duration                    : 1 h 47 min
    Bit rate                    : 767 kb/s
    Width                       : 688 pixels
    Height                      : 288 pixels
    Display aspect ratio        : 2.40:1
    Frame rate                  : 23.976 (24000/1001) FPS
    Color space                 : YUV
    Chroma subsampling          : 4:2:0
    Bit depth                   : 8 bits
    Scan type                   : Progressive
    Compression mode            : Lossy
    Bits/(Pixel*Frame)          : 0.161
    Stream size                 : 590 MiB (85%)
    Writing library             : XviD 73

    Audio
    ID                          : 1
    Format                      : MPEG Audio
    Format version              : Version 1
    Format profile              : Layer 3
    Codec ID                    : 55
    Codec ID/Hint               : MP3
    Duration                    : 1 h 47 min
    Bit rate mode               : Constant
    Bit rate                    : 128 kb/s
    Channel(s)                  : 2 channels
    Sampling rate               : 48.0 kHz
    Compression mode            : Lossy
    Stream size                 : 98.4 MiB (14%)
    Alignment                   : Aligned on interleaves
    Interleave, duration        : 42  ms (1.00 video frame)
    Interleave, preload duratio : 504  ms
    Writing library             : LAME3.99r
    Encoding settings           : -m s -V 4 -q 2 -lowpass 17 -b 128



    Скриншоты
    [img]http://i5.imageban.ru/out/2018/04/15/a147cf98d59fed9bfa39c84044a28b89.png[/img][img]http://i5.imageban.ru/out/2018/04/15/efd79ad460f825e79eccabf6e9cf1c5e.png[/img][img]http://i5.imageban.ru/out/2018/04/15/e780c5939d5727e766594b96512a19fd.png[/img][img]http://i3.imageban.ru/out/2018/04/15/8c3df0543aa64ea6080f120ae47a3264.png[/img][img]http://i1.imageban.ru/out/2018/04/15/95532c0960a1732d99c78441d23d9383.png[/img][img]http://i1.imageban.ru/out/2018/04/15/dfe55a084083a09143e42d0e272f6c89.png[/img]
    Еще похожие »

    Как скачать?
    1. Качаем UTorrent версии 2.0 и выше отсюда
    2. После установки, жмем на ссылку Скачать торрент.
    3. Открываем его через utorrent.
    4. Ждем пока подключатся участники.
    5. Качаем.


    Комментарии о СМС для тебя / SMS für Dich | HDRip
    Добавлять комментарии могут только зарегистрированные пользователи

    Зарегистрироваться или Войти


    Ближайшее в кино
    • Привидение дата выхода 26 апреля 2018Привидение
      Дата выхода: 26 апреля 2018
    • 1045590|Правда или действие|26 апреля 2018|200|300Правда или действие
      Дата выхода: 26 апреля 2018
    • 841470|Смешарики. Дежавю|26 апреля 2018|200|300Смешарики. Дежавю
      Дата выхода: 26 апреля 2018
    • 1046545|Танки|26 апреля 2018|200|300Танки
      Дата выхода: 26 апреля 2018
    • 1027311|Дыши во мгле|26 апреля 2018|200|300Дыши во мгле
      Дата выхода: 26 апреля 2018
    • 959260|Миссис Хайд|26 апреля 2018|200|300Миссис Хайд
      Дата выхода: 26 апреля 2018
    • 845128|Я заберу твои деньги|26 апреля 2018|200|300Я заберу твои деньги
      Дата выхода: 26 апреля 2018
    • 1112036|Лицо|26 апреля 2018|200|300Лицо
      Дата выхода: 26 апреля 2018
    • 1076322|Великолепная|26 апреля 2018|200|300Великолепная
      Дата выхода: 26 апреля 2018
    • 1110934|Золушка|28 апреля 2018|200|300Золушка
      Дата выхода: 28 апреля 2018
    • 1115701|МУЛЬТ в кино. Выпуск №74. Планета Май!|28 апреля 2018|200|300МУЛЬТ в кино. Выпуск №74. Планета Май!
      Дата выхода: 28 апреля 2018
    • 928533|Папа-мама гусь|1 мая 2018|200|300Папа-мама гусь
      Дата выхода: 1 мая 2018
    • 843649|Мстители: Война бесконечности|3 мая 2018|200|300Мстители: Война бесконечности
      Дата выхода: 3 мая 2018
    • 939785|Остров собак|3 мая 2018|200|300Остров собак
      Дата выхода: 3 мая 2018
    • 905031|Собибор|3 мая 2018|200|300Собибор
      Дата выхода: 3 мая 2018
    Вверх