• Игры для PS4
  • Игры для PS3
  • Игры для XBOX360
  • Игры для PC
  • Игры для PS2
  • Игры для PSP
  • Для телефонов
  • Музыка
  • Книги / Журналы
  • Обои
  • Опрос
    Удобен ли сайт в использовании?
      0
    • Очень удобен, все понятно1,1,false,300,full
    • Удобен1,2,false,300,full
    • Средне1,3,false,300,full
    • Неудобен, трудно ориентироваться1,4,false,300,full
    • Совсем неудобен1,5,false,300,full
    Статистика
    Всего онлайн -
    Гостей -
    Пользователей -
    Короли трекера
    Благодарности () Закрыть
    Информация о фильме
    Название: Музыкальный город
    Оригинальное название: Music City
    Год выпуска: 2018
    Жанр:  Драма
    Режиссер: Адам ДиВелло
    В ролях: Джексон Бойд, Рачил Дегман, Алиса Фуллер

    О фильме:
    Группа молодых музыкантов пытаются воплотить мечту в реальность и заняться музыкальным бизнесом.

    [img]http://imdb.snick.ru/ratefor/02/tt7616830.png[/img][img]https://u.myshows.me/r/56796.png[/img]
    Страна: США
    Студия: Done and Done Productions, Lionsgate Television
    Продолжительность: 8x ~ 0:21:00
    Перевод: Любительский многоголосый [ColdFilm]

    Файл
    Кодек: XviD
    Качество: HDTVRip
    Видео: 720x400, 1370 Кбит/с, 23.976 fps
    Звук: 48 kHz,AC3 , 2/0 (L,R) ch, ~192 kbps

    [img]http://s020.radikal.ru/i712/1701/ad/1bb0bd9bc94a.gif[/img]



    MediaInfo
    General
    Complete name               : Music.City.S01Е01.400p.ColdFilm.avi
    Format                      : AVI
    Format/Info                 : Audio Video Interleave
    File size                   : 241 MiB
    Duration                    : 21 min 28 s
    Overall bit rate            : 1 572 kb/s
    Writing application         : Lavf54.63.104

    Video
    ID                          : 0
    Format                      : xvid
    Codec ID                    : xvid
    Duration                    : 21 min 27 s
    Bit rate                    : 1 370 kb/s
    Width                       : 720 pixels
    Height                      : 400 pixels
    Display aspect ratio        : 16:9
    Frame rate                  : 23.976 (24000/1001) FPS
    Scan type                   : Progressive
    Bits/(Pixel*Frame)          : 0.198
    Stream size                 : 210 MiB (87%)

    Audio
    ID                          : 1
    Format                      : AC-3
    Format/Info                 : Audio Coding 3
    Codec ID                    : 2000
    Duration                    : 21 min 28 s
    Bit rate mode               : Constant
    Bit rate                    : 192 kb/s
    Channel(s)                  : 2 channels
    Channel positions           : Front: L R
    Sampling rate               : 48.0 kHz
    Frame rate                  : 31.250 FPS (1536 SPF)
    Bit depth                   : 16 bits
    Compression mode            : Lossy
    Stream size                 : 29.5 MiB (12%)
    Alignment                   : Aligned on interleaves
    Interleave, duration        : 32  ms (0.77 video frame)
    Service kind                : Complete Main

    Свернуть
    Похожие раздачи Искать похожие
    Инструкция по скачиванию
     1  Качаем uTorrent версии 2.0 и выше
     2  После установки, жмем выше под постером на ссылку Скачать [MediaGet] или Скачать .torrent
     3  Открываем скачанный файл через соответствующий клиент: MediaGet или uTorrent
     4  Ждем пока подключатся участники
     5  Качаем
    Комментарии о  Музыкальный город / Music City [Сезон 01] | HDTVRip 
    Ближайшее в кино
    Вверх