• Игры для PS4
  • Игры для PS3
  • Игры для XBOX360
  • Игры для PC
  • Игры для PS2
  • Игры для PSP
  • Для телефонов
  • Музыка
  • Книги / Журналы
  • Обои
  • Опрос
    Откуда Вы о нас узнали?
      0
    • От знакомых2,1,false,300,full
    • Из социальных сетей2,2,false,300,full
    • Из поисковых систем2,3,false,300,full
    • Другое2,4,false,300,full
    Статистика
    Всего онлайн -
    Гостей -
    Пользователей -
    Короли трекера
    
    Благодарности () Закрыть
    Быстрее загружает сайты Экономит интернет—трафик Меняет оформление страницы ВК Блокирует всю рекламу на сайтах Загружает торренты как µTorrent клиент Объеденяет все твои чаты из соц. сетей в один Проигрывает твою музыку не заходя во ВКонтакте
    Новый интернет-браузер
    Оrbitum
    Скачать
    и многое другое... Подробности на сайте производителя
    Информация о фильме
    Название: Доктор Хэрроу
    Оригинальное название: Harrow
    Год выпуска: 2018
    Жанр:  Драма
    Режиссер: Тони Кравиц, Питер Сэлмон, Кейт Дэннис
    В ролях: Йоан Гриффит, Мирра Фолкс, Реми Хий, Робин Малкольм

    О фильме:
    Доктор Даниэль Харроу – один из лучших специалистов в своей области, он блестящий медицинский эксперт, раскрывший уже не одно сложнейшее дело. Его стремление к справедливости для жертв помогает ему даже в самых сложных делах. Но однажды он сам оказывается в сложной ситуации. Смотрите онлайн сериал «Харроу» о том, как разоблачение темной тайны из прошлого доктора грозит его будущему и карьере, угрожает его семье. Он должен приложить все силы, использовать все свои навыки, чтобы эту тайну оставить нераскрытой.

    [img]https://u.myshows.me/r/56610.png[/img]
    Страна: США, Австралия
    Студия: Hoodlum Entertainmen
    Продолжительность: 6 x ~ 00:52:00
    Перевод: Любительский многоголосый закадровый [ColdFilm]

    Файл
    Кодек: MPEG4
    Качество: HDTVRip
    Видео: 1549 Кбит/с, 720x400, 29.970 fps
    Аудио: Русский (MP3, 2 ch, 256 Кбит/с)

    [img]http://s020.radikal.ru/i712/1701/ad/1bb0bd9bc94a.gif[/img]


    MI
    General
    Complete name               : Harrow.S01E01.400p.ColdFilm.avi
    Format                      : AVI
    Format/Info                 : Audio Video Interleave
    File size                   : 666 MiB
    Duration                    : 52 min 26 s
    Overall bit rate            : 1 775 kb/s
    Writing application         : Lavf57.40.101

    Video
    ID                          : 0
    Format                      : MPEG-4 Visual
    Format profile              : Simple@L1
    Format settings, BVOP       : No
    Format settings, QPel       : No
    Format settings, GMC        : No warppoints
    Format settings, Matrix     : Default (H.263)
    Codec ID                    : FMP4
    Duration                    : 52 min 26 s
    Bit rate                    : 1 491 kb/s
    Width                       : 720 pixels
    Height                      : 400 pixels
    Display aspect ratio        : 16:9
    Frame rate                  : 100.000 FPS
    Color space                 : YUV
    Chroma subsampling          : 4:2:0
    Bit depth                   : 8 bits
    Scan type                   : Progressive
    Compression mode            : Lossy
    Bits/(Pixel*Frame)          : 0.052
    Stream size                 : 559 MiB (84%)
    Writing library             : Lavc57.48.101

    Audio
    ID                          : 1
    Format                      : MPEG Audio
    Format version              : Version 1
    Format profile              : Layer 3
    Format settings             : Joint stereo
    Codec ID                    : 55
    Codec ID/Hint               : MP3
    Duration                    : 52 min 26 s
    Bit rate mode               : Constant
    Bit rate                    : 256 kb/s
    Channel(s)                  : 2 channels
    Sampling rate               : 48.0 kHz
    Compression mode            : Lossy
    Stream size                 : 96.0 MiB (14%)
    Alignment                   : Aligned on interleaves
    Interleave, duration        : 24  ms (2.40 video frames)

    Свернуть
    Инструкция по скачиванию
     1  Качаем uTorrent версии 2.0 и выше
     2  После установки, жмем выше под постером на ссылку Скачать [MediaGet] или Скачать .torrent
     3  Открываем скачанный файл через соответствующий клиент: MediaGet или uTorrent
     4  Ждем пока подключатся участники
     5  Качаем
    Комментарии о  Доктор Хэрроу / Harrow [Сезон 01 | 01-06 серии из 10] | HDTVRip 
    Ближайшее в кино
    Вверх