• Игры для PS3
  • Игры для XBOX360
  • Игры для PC
  • Игры для PS2
  • Игры для PSP
  • Для телефонов
  • Музыка
  • Книги/Журналы
  • Обои
  •  
    Опрос
    Откуда Вы о нас узнали?
      0
    • От знакомых2,1,false,300,full
    • Из социальных сетей2,2,false,300,full
    • Из поисковых систем2,3,false,300,full
    • Другое2,4,false,300,full
    Статистика
    Загрузка...
    Эш против Зловещих мертвецов / Ash vs Evil Dead [Сезон 03 | 01-08 серии из 10] | WEBRip 1080p
    Статус  Проверено
    В закладки
    Модератор: Max

    Эш против Зловещих мертвецов / Ash vs Evil Dead [Сезон 03 | 01-08 серии из 10] | WEBRip 1080p [Сериалы 2018] скачать торрентом/torrent бесплатно

    Год выхода
    Категории
    Язык
    Закачал
    Max | 15 апреля в 20ч 31м 30с
    Раздел
    Отзывов
    0
    Раздают: 1 Качают: 26 Скачали: 1 Размер: 7.99 GB
    Инфо о раздаче | Благодарности |
    0/5
    0
    0 5 0
    Поддержи нас — расскажи друзьям!
    Orbitum
    Новый интернет-браузер Быстрее загружает сайты Экономит интернет—трафик Меняет оформление страницы ВК Блокирует всю рекламу на сайтах Загружает торренты как

    µTorrent

    клиент
    Объеденяет все твои чаты из соц. сетей в один Проигрывает твою музыку не заходя во ВКонтакте
    Скачать и многое другое... Подробности на сайте производителя
    Информация о фильме
    Название: Эш против Зловещих мертвецов
    Оригинальное название: Ash vs Evil Dead
    Год выпуска: 2018
    Жанр:  Ужасы, боевик, комедия
    Режиссер: Майкл Херст, Рик Джейкобсон, Сэм Рэйми
    В ролях: Брюс Кэмпбелл, Джилл Мари Джонс, Дэна ДеЛоренцо, Люси Лоулесс, Рэй Сантьяго, Мими Роджерс, Хемки Мадера, Фил Пелетон, Дэмиен Гарви

    О фильме:
    30 лет он избегал ответственности за свои поступки, упорно старался не взрослеть и не особо стремился вновь встретиться с ожившими мертвецами. Но, совершив ошибку, Эш узнает, что проказа кандарийских демонов угрожает распространиться по всей планете и ему снова приходится вступить в схватку с полчищами мертвой нечисти. Реки крови, горы трупов и, конечно, искрометный черный юмор – отличный подарок всем любителям ужасов, комедий, крови, треша и угара.

    [img]https://u.myshows.me/r/39469.png[/img]

    Страна: США
    Студия: Starz, Renaissance Pictures
    Продолжительность: 8x ~00:40:00
    Перевод: Любительский многоголосый [ColdFilm]

    Файл
    Кодек: x.264
    Качество: WEBRip 1080p
    Видео:~5000 Кбит/с, 1920x1080, 23.976 fps
    Аудио: Русский (AC3, 2 ch, 192 Кбит/с)

    [img]http://s020.radikal.ru/i712/1701/ad/1bb0bd9bc94a.gif[/img]


    MediaInfo
    General
    Unique ID                   : 206436849954294867043447577439319730424 (0x9B4E4A8536F7175E9D6BA04313CDA8F8)
    Complete name               : D:Ash.vs.Evil.Dead.S03E01.1080p.WEB-DL.ColdFilm.mkv
    Format                      : Matroska
    Format version              : Version 2
    File size                   : 1 011 MiB
    Duration                    : 27 min 57 s
    Overall bit rate            : 5 057 kb/s
    Encoded date                : UTC 2018-02-25 09:29:30 / UTC 2018-02-25 00:03:01
    Writing application         : mkvmerge v3.3.0 ("Language") built on Mar 24 2010 14:59:24
    Writing library             : libebml v0.8.0 + libmatroska v0.9.0 / Lavf54.63.104

    Video
    ID                          : 1
    Format                      : AVC
    Format/Info                 : Advanced Video Codec
    Format profile              : Main@L4
    Format settings             : CABAC / 1 Ref Frames
    Format settings, CABAC      : Yes
    Format settings, ReFrames   : 1 frame
    Codec ID                    : V_MPEG4/ISO/AVC
    Duration                    : 27 min 57 s
    Bit rate                    : 5 000 kb/s
    Width                       : 1 920 pixels
    Height                      : 1 080 pixels
    Display aspect ratio        : 16:9
    Frame rate mode             : Constant
    Frame rate                  : 23.976 (24000/1001) FPS
    Color space                 : YUV
    Chroma subsampling          : 4:2:0
    Bit depth                   : 8 bits
    Scan type                   : Progressive
    Bits/(Pixel*Frame)          : 0.101
    Stream size                 : 953 MiB (94%)
    Writing library             : x264 core 129
    Encoding settings           : cabac=1 / ref=1 / deblock=1:0:0 / analyse=0x1:0x131 / me=dia / subme=2 / psy=1 / psy_rd=1.00:0.00 / mixed_ref=0 / me_range=16 / chroma_me=1 / trellis=0 / 8x8dct=0 / cqm=0 / deadzone=21,11 / fast_pskip=1 / chroma_qp_offset=0 / threads=4 / lookahead_threads=1 / sliced_threads=0 / nr=0 / decimate=1 / interlaced=0 / bluray_compat=0 / constrained_intra=0 / bframes=0 / weightp=2 / keyint=250 / keyint_min=25 / scenecut=40 / intra_refresh=0 / rc_lookahead=40 / rc=abr / mbtree=1 / bitrate=5000 / ratetol=1.0 / qcomp=0.60 / qpmin=10 / qpmax=51 / qpstep=4 / ip_ratio=1.41 / aq=1:1.00
    Default                     : No
    Forced                      : No

    Audio
    ID                          : 2
    Format                      : AC-3
    Format/Info                 : Audio Coding 3
    Codec ID                    : A_AC3
    Duration                    : 27 min 57 s
    Bit rate mode               : Constant
    Bit rate                    : 192 kb/s
    Channel(s)                  : 2 channels
    Channel positions           : Front: L R
    Sampling rate               : 48.0 kHz
    Frame rate                  : 31.250 FPS (1536 SPF)
    Bit depth                   : 16 bits
    Compression mode            : Lossy
    Stream size                 : 38.4 MiB (4%)
    Service kind                : Complete Main
    Default                     : Yes
    Forced                      : No

    Еще похожие »

    Как скачать?
    1. Качаем UTorrent версии 2.0 и выше отсюда
    2. После установки, жмем на ссылку Скачать торрент.
    3. Открываем его через utorrent.
    4. Ждем пока подключатся участники.
    5. Качаем.


    Комментарии о Эш против Зловещих мертвецов / Ash vs Evil Dead [Сезон 03 | 01-08 серии из 10] | WEBRip 1080p
    Добавлять комментарии могут только зарегистрированные пользователи

    Зарегистрироваться или Войти


    Ближайшее в кино
    • Привидение дата выхода 26 апреля 2018Привидение
      Дата выхода: 26 апреля 2018
    • 1045590|Правда или действие|26 апреля 2018|200|300Правда или действие
      Дата выхода: 26 апреля 2018
    • 841470|Смешарики. Дежавю|26 апреля 2018|200|300Смешарики. Дежавю
      Дата выхода: 26 апреля 2018
    • 1046545|Танки|26 апреля 2018|200|300Танки
      Дата выхода: 26 апреля 2018
    • 1027311|Дыши во мгле|26 апреля 2018|200|300Дыши во мгле
      Дата выхода: 26 апреля 2018
    • 959260|Миссис Хайд|26 апреля 2018|200|300Миссис Хайд
      Дата выхода: 26 апреля 2018
    • 845128|Я заберу твои деньги|26 апреля 2018|200|300Я заберу твои деньги
      Дата выхода: 26 апреля 2018
    • 1112036|Лицо|26 апреля 2018|200|300Лицо
      Дата выхода: 26 апреля 2018
    • 1076322|Великолепная|26 апреля 2018|200|300Великолепная
      Дата выхода: 26 апреля 2018
    • 1110934|Золушка|28 апреля 2018|200|300Золушка
      Дата выхода: 28 апреля 2018
    • 1115701|МУЛЬТ в кино. Выпуск №74. Планета Май!|28 апреля 2018|200|300МУЛЬТ в кино. Выпуск №74. Планета Май!
      Дата выхода: 28 апреля 2018
    • 928533|Папа-мама гусь|1 мая 2018|200|300Папа-мама гусь
      Дата выхода: 1 мая 2018
    • 843649|Мстители: Война бесконечности|3 мая 2018|200|300Мстители: Война бесконечности
      Дата выхода: 3 мая 2018
    • 939785|Остров собак|3 мая 2018|200|300Остров собак
      Дата выхода: 3 мая 2018
    • 905031|Собибор|3 мая 2018|200|300Собибор
      Дата выхода: 3 мая 2018
    Вверх