• Игры для PS4
  • Игры для PS3
  • Игры для XBOX360
  • Игры для PC
  • Игры для PS2
  • Игры для PSP
  • Для телефонов
  • Музыка
  • Книги / Журналы
  • Обои
  • Опрос
    Удобен ли сайт в использовании?
      0
    • Очень удобен, все понятно1,1,false,300,full
    • Удобен1,2,false,300,full
    • Средне1,3,false,300,full
    • Неудобен, трудно ориентироваться1,4,false,300,full
    • Совсем неудобен1,5,false,300,full
    Статистика
    Всего онлайн -
    Гостей -
    Пользователей -
    Короли трекера
    Благодарности () Закрыть
    Информация о фильме
    Название: На грани безумия
    Оригинальное название: Spinning Man
    Год выхода: 2018
    Жанр: Триллер, драма, детектив
    Режиссер: Симон Кайзер
    В ролях: Одейя Раш, Пирс Броснан, Гай Пирс, Минни Драйвер, Александра Шипп, Кларк Грегг, Джейми Кеннеди, Стерлинг Бомон, Фрея Тингли, Карло Рота

    О фильме:
    Респектабельная жизнь профессора философии Эвана Берча начинает рушиться по мере того, как появляются подробности о его неподобающем поведении со студентками. В довершении ко всему герой становится центральным подозреваемым в деле об убийстве одной из слушательниц его курса.



    Страна: Швеция, США
    Студия: Irish DreamTime, Chimney
    Продолжительность: 01:40:35
    Перевод: Любительский двухголосый, закадровый

    Файл
    Кодек: h.264
    Качество: WEB-DL 1080p
    Видео: MPEG-4 AVC, 8665 Кбит/с, 1920x800, 23,976 кадр/с
    Звук:
    Русский (AC3, 6 ch, 384 Кбит/с) / Любительский двухголосый [HiWay Grope]
    Английский (E-AC3, 6 ch, 640 Кбит/с)
    Субтитры: Английские (Full, SDH)

    Реклама отсутствует.

    Семпл

    MI
    General
    Unique ID                                : 281029186082139503378624212859501376426 (0xD36C40A2053EF43AECABF8C4ABD773AA)
    Complete name                            : D:uTorrentNa.grani.bezumija.2018.WEB-DL.AMZN.1080p.MediaClub.mkv
    Format                                   : Matroska
    Format version                           : Version 4 / Version 2
    File size                                : 6.81 GiB
    Duration                                 : 1 h 40 min
    Overall bit rate mode                    : Variable
    Overall bit rate                         : 9 692 kb/s
    Encoded date                             : UTC 2018-04-15 17:54:46
    Writing application                      : mkvmerge v19.0.0 ("Brave Captain") 64-bit
    Writing library                          : libebml v1.3.5 + libmatroska v1.4.8
    Cover                                    : Yes
    Attachments                              : cover.jpg

    Video
    ID                                       : 1
    Format                                   : AVC
    Format/Info                              : Advanced Video Codec
    Format profile                           : High@L4
    Format settings                          : CABAC / 4 Ref Frames
    Format settings, CABAC                   : Yes
    Format settings, RefFrames               : 4 frames
    Codec ID                                 : V_MPEG4/ISO/AVC
    Duration                                 : 1 h 40 min
    Bit rate mode                            : Variable
    Bit rate                                 : 8 665 kb/s
    Maximum bit rate                         : 15.0 Mb/s
    Width                                    : 1 920 pixels
    Height                                   : 800 pixels
    Display aspect ratio                     : 2.40:1
    Frame rate mode                          : Constant
    Frame rate                               : 23.976 (24000/1001) FPS
    Color space                              : YUV
    Chroma subsampling                       : 4:2:0
    Bit depth                                : 8 bits
    Scan type                                : Progressive
    Bits/(Pixel*Frame)                       : 0.235
    Stream size                              : 6.09 GiB (89%)
    Title                                    : WEB-DL.1080p.AMZN by Silverok
    Default                                  : Yes
    Forced                                   : No
    Color range                              : Limited
    Color primaries                          : BT.709
    Transfer characteristics                 : BT.709
    Matrix coefficients                      : BT.709

    Audio #1
    ID                                       : 2
    Format                                   : AC-3
    Format/Info                              : Audio Coding 3
    Codec ID                                 : A_AC3
    Duration                                 : 1 h 40 min
    Bit rate mode                            : Constant
    Bit rate                                 : 384 kb/s
    Channel(s)                               : 6 channels
    Channel positions                        : Front: L C R, Side: L R, LFE
    Sampling rate                            : 48.0 kHz
    Frame rate                               : 31.250 FPS (1536 SPF)
    Bit depth                                : 16 bits
    Compression mode                         : Lossy
    Stream size                              : 276 MiB (4%)
    Title                                    : Любительский двухголосый [HiWay Grope]
    Language                                 : Russian
    Service kind                             : Complete Main
    Default                                  : Yes
    Forced                                   : No

    Audio #2
    ID                                       : 3
    Format                                   : E-AC-3
    Format/Info                              : Enhanced Audio Coding 3
    Codec ID                                 : A_EAC3
    Duration                                 : 1 h 40 min
    Bit rate mode                            : Constant
    Bit rate                                 : 640 kb/s
    Channel(s)                               : 6 channels
    Channel positions                        : Front: L C R, Side: L R, LFE
    Sampling rate                            : 48.0 kHz
    Frame rate                               : 187.500 FPS (256 SPF)
    Compression mode                         : Lossy
    Stream size                              : 460 MiB (7%)
    Language                                 : English
    Service kind                             : Complete Main
    Default                                  : No
    Forced                                   : No

    Text #1
    ID                                       : 4
    Format                                   : UTF-8
    Codec ID                                 : S_TEXT/UTF8
    Codec ID/Info                            : UTF-8 Plain Text
    Duration                                 : 1 h 35 min
    Bit rate                                 : 67 b/s
    Count of elements                        : 1588
    Stream size                              : 47.3 KiB (0%)
    Title                                    : Full
    Language                                 : English
    Default                                  : Yes
    Forced                                   : No

    Text #2
    ID                                       : 5
    Format                                   : UTF-8
    Codec ID                                 : S_TEXT/UTF8
    Codec ID/Info                            : UTF-8 Plain Text
    Duration                                 : 1 h 39 min
    Bit rate                                 : 68 b/s
    Count of elements                        : 1692
    Stream size                              : 50.0 KiB (0%)
    Title                                    : SDH
    Language                                 : English
    Default                                  : No
    Forced                                   : NoСвернуть


    Скриншоты
    [screen]http://img12.lostpic.net/2018/04/15/5d7abf271c47f78d2788222b93fbef79.jpg[/screen][screen]http://img12.lostpic.net/2018/04/15/3484415c474b9d6930f6cb59c8e37c11.jpg[/screen][screen]http://img12.lostpic.net/2018/04/15/9e6b6c73460eaf9ed8c596ef28de99db.jpg[/screen][screen]http://img12.lostpic.net/2018/04/15/b1846451802ecad5029681f89810d1f7.jpg[/screen][screen]http://img12.lostpic.net/2018/04/15/16d6fef194d9ecc59d19ab84cd92d471.jpg[/screen][screen]http://img12.lostpic.net/2018/04/15/45501c0b63d912f375373b68b45599c4.jpg[/screen]Свернуть
    Похожие раздачи Искать похожие
    Инструкция по скачиванию
     1  Качаем uTorrent версии 2.0 и выше
     2  После установки, жмем выше под постером на ссылку Скачать [MediaGet] или Скачать .torrent
     3  Открываем скачанный файл через соответствующий клиент: MediaGet или uTorrent
     4  Ждем пока подключатся участники
     5  Качаем
    Комментарии о  На грани безумия / Spinning Man | WEB-DL 1080p 
    Ближайшее в кино
    Вверх