• Игры для PS4
  • Игры для PS3
  • Игры для XBOX360
  • Игры для PC
  • Игры для PS2
  • Игры для PSP
  • Для телефонов
  • Музыка
  • Книги / Журналы
  • Обои
  • Опрос
    Откуда Вы о нас узнали?
      0
    • От знакомых2,1,false,300,full
    • Из социальных сетей2,2,false,300,full
    • Из поисковых систем2,3,false,300,full
    • Другое2,4,false,300,full
    Статистика
    Всего онлайн -
    Гостей -
    Пользователей -
    Короли трекера
    Благодарности () Закрыть
    Информация о фильме
    Название: Ну, здравствуй, Оксана Соколова!
    Год выхода: 2018
    Жанр: Комедия
    Режиссер: Кирилл Васильев
    В ролях: Виктор Добронравов, Валентина Мазунина, Сергей Бурунов, Борис Дергачев, Алексей Базанов, Александр Стефанцов, Николай Шрайбер, Алексей Медведев, Игорь Гаспарян, Сергей Лавыгин

    О фильме:
    Несостоявшемуся актеру Илье наконец-то повезло — с завтрашнего дня его голос будет звучать в эфире «Мужского радио». Как же не отметить такое событие! Но утром новоиспеченный ведущий не может произнести ни слова — голос после бурной вечеринки пропал совсем. Полчаса до эфира, прайм-тайм, подписанный контракт — Илья в панике… Единственный выход — укол в голосовые связки. Только это, по заверению доктора, может спасти ситуацию. И вот ведущий у микрофона. Все готово к эфиру. Обратный отсчет. Илья приветствует радиослушателей… женским голосом! Став заложником нелепой ситуации, герой идёт на всё, чтобы вернуть голос и не упустить свой шанс.



    Страна: Россия
    Студия: Профит
    Продолжительность: 01:39:54
    Перевод:
    • Не требуется | iTunes

    Файл
    Качество: WEB-DL 1080p
    Формат: MKV
    Кодек: MPEG-4 AVC
    Видео: 1912x796 (2,40:1), 23,976 fps, MPEG-4 AVC ~ 4526 kbps avg, 0.124 bit/pixel
    Аудио: AC3, 48 kHz, 6 ch, ~384.00 kbps avg | русский | iTunes  
    Субтитры: Отсутствуют

    Инфо-файл
    Общее
    Уникальный идентификатор                 : 249789261901388561994054901135333248262 (0xBBEBA97420D73FC386320B314835CD06)
    Полное имя                               : HI_OKSANA_SOKOLOVA_WEB_DL_1080p.mkv
    Формат                                   : Matroska
    Версия формата                           : Version 2
    Размер файла                             : 3,43 Гбайт
    Продолжительность                        : 1 ч. 39 м.
    Общий поток                              : 4912 Кбит/сек
    Дата кодирования                         : UTC 2018-04-15 18:06:27
    Программа кодирования                    : mkvmerge v8.3.0 ("Over the Horizon") 64bit
    Библиотека кодирования                   : libebml v1.3.1 + libmatroska v1.4.2

    Видео
    Идентификатор                            : 1
    Формат                                   : AVC
    Формат/Информация                        : Advanced Video Codec
    Профиль формата                          : High@L4
    Настройки формата                        : CABAC / 5 Ref Frames
    Параметр CABAC формата                   : Да
    Параметр ReFrames формата                : 5 кадров
    Идентификатор кодека                     : V_MPEG4/ISO/AVC
    Продолжительность                        : 1 ч. 39 м.
    Битрейт                                  : 4526 Кбит/сек
    Ширина                                   : 1912 пикселей
    Высота                                   : 796 пикселей
    Соотношение сторон                       : 2,40:1
    Режим частоты кадров                     : Постоянный
    Частота кадров                           : 23,976 (24000/1001) кадра/сек
    Цветовое пространство                    : YUV
    Субдискретизация насыщенности            : 4:2:0
    Битовая глубина                          : 8 бит
    Тип развёртки                            : Прогрессивная
    Бит/(Пиксели*Кадры)                      : 0.124
    Размер потока                            : 3,16 Гбайт (92%)
    Язык                                     : English
    Default                                  : Да
    Forced                                   : Нет
    Цветовой диапазон                        : Limited
    Основные цвета                           : BT.709
    Характеристики трансфера                 : BT.709
    Коэффициенты матрицы                     : BT.709

    Аудио
    Идентификатор                            : 2
    Формат                                   : AC-3
    Формат/Информация                        : Audio Coding 3
    Идентификатор кодека                     : A_AC3
    Продолжительность                        : 1 ч. 39 м.
    Вид битрейта                             : Постоянный
    Битрейт                                  : 384 Кбит/сек
    Каналы                                   : 6 каналов
    Расположение каналов                     : Front: L C R, Side: L R, LFE
    Частота                                  : 48,0 КГц
    Частота кадров                           : 31,250 кадров/сек (1536 SPF)
    Битовая глубина                          : 16 бит
    Метод сжатия                             : С потерями
    Размер потока                            : 274 Мбайт (8%)
    Язык                                     : Russian
    Default                                  : Да
    Forced                                   : Нет

    Меню
    00:00:00.000                             : en:1
    00:01:20.000                             : en:2
    00:10:06.000                             : en:3
    00:19:48.000                             : en:4
    00:35:10.000                             : en:5
    00:45:05.000                             : en:6
    00:55:19.000                             : en:7
    01:07:24.000                             : en:8
    01:16:28.000                             : en:9
    01:25:16.000                             : en:10
    01:34:52.000                             : en:11
    Свернуть


    Скриншоты
    [screen]http://i105.fastpic.ru/big/2018/0415/82/9c027ce8adf9e98f433c16f512464082.png[/screen][screen]http://i105.fastpic.ru/big/2018/0415/ef/49183077184f696c387c69364ef5d3ef.png[/screen][screen]http://i105.fastpic.ru/big/2018/0415/ed/ca81c0687aeb0acce0ac69031257f5ed.png[/screen][screen]http://i105.fastpic.ru/big/2018/0415/78/e32c0ef2a9bff1c498a88ba81067ca78.png[/screen][screen]http://i105.fastpic.ru/big/2018/0415/3c/9ff724ae3d083e201e2940c40241273c.png[/screen][screen]http://i105.fastpic.ru/big/2018/0415/4e/86d2bc6a10eba0c352630de9cef6e24e.png[/screen]Свернуть
    Похожие раздачи Искать похожие
    Инструкция по скачиванию
     1  Качаем uTorrent версии 2.0 и выше
     2  После установки, жмем выше под постером на ссылку Скачать [MediaGet] или Скачать .torrent
     3  Открываем скачанный файл через соответствующий клиент: MediaGet или uTorrent
     4  Ждем пока подключатся участники
     5  Качаем
    Комментарии о  Ну, здравствуй, Оксана Соколова! | WEB-DL 1080p 
    Ближайшее в кино
    Вверх