• Игры для PS4
  • Игры для PS3
  • Игры для XBOX360
  • Игры для PC
  • Игры для PS2
  • Игры для PSP
  • Для телефонов
  • Музыка
  • Книги/Журналы
  • Обои
  •  
    Опрос
    Откуда Вы о нас узнали?
      0
    • От знакомых2,1,false,300,full
    • Из социальных сетей2,2,false,300,full
    • Из поисковых систем2,3,false,300,full
    • Другое2,4,false,300,full
    Статистика
    Загрузка...
    Ну, здравствуй, Оксана Соколова! | WEB-DL 720p
    Статус  Проверено
    В закладки
    Модератор: Max

    Ну, здравствуй, Оксана Соколова! | WEB-DL 720p [Фильмы 2018] скачать торрентом/torrent бесплатно

    Год выхода
    Категории
    Язык
    Закачал
    Аноним | 16 апреля в 08ч 00м 56с
    Раздел
    Отзывов
    0
    Раздают: 96 Качают: 1 Скачали: 99 Размер: 3.07 GB
    Инфо о раздаче | Благодарности |
    0/5
    0
    0 5 0
    Поддержи нас — расскажи друзьям!
    Orbitum
    Новый интернет-браузер Быстрее загружает сайты Экономит интернет—трафик Меняет оформление страницы ВК Блокирует всю рекламу на сайтах Загружает торренты как

    µTorrent

    клиент
    Объеденяет все твои чаты из соц. сетей в один Проигрывает твою музыку не заходя во ВКонтакте
    Скачать и многое другое... Подробности на сайте производителя
    Информация о фильме
    Название: Ну, здравствуй, Оксана Соколова!
    Год выхода: 2018
    Жанр: Комедия
    Режиссер: Кирилл Васильев
    В ролях: Виктор Добронравов, Валентина Мазунина, Сергей Бурунов, Борис Дергачев, Алексей Базанов, Александр Стефанцов, Николай Шрайбер, Алексей Медведев, Игорь Гаспарян, Сергей Лавыгин

    О фильме:
    Несостоявшемуся актеру Илье наконец-то повезло — с завтрашнего дня его голос будет звучать в эфире «Мужского радио». Как же не отметить такое событие! Но утром новоиспеченный ведущий не может произнести ни слова — голос после бурной вечеринки пропал совсем. Полчаса до эфира, прайм-тайм, подписанный контракт — Илья в панике… Единственный выход — укол в голосовые связки. Только это, по заверению доктора, может спасти ситуацию. И вот ведущий у микрофона. Все готово к эфиру. Обратный отсчет. Илья приветствует радиослушателей… женским голосом! Став заложником нелепой ситуации, герой идёт на всё, чтобы вернуть голос и не упустить свой шанс.



    Страна: Россия
    Студия: Профит
    Продолжительность: 01:39:54
    Перевод:
    • Не требуется | iTunes

    Файл
    Качество: WEB-DL 720p
    Формат: MKV
    Кодек: MPEG-4 AVC
    Видео: 1280x532 (2,40:1), 23,976 fps, MPEG-4 AVC ~ 4009 kbps avg, 0.246 bit/pixel
    Аудио: AC3, 48 kHz, 6 ch, ~384.00 kbps avg | русский | iTunes  
    Субтитры: Отсутствуют

    Инфо-файл
    Общее
    Уникальный идентификатор                 : 200575224850493246469909068934880720095 (0x96E562170C2843298C53B96E30DC74DF)
    Полное имя                               : HI_OKSANA_SOKOLOVA_WEB_DL_720p.mkv
    Формат                                   : Matroska
    Версия формата                           : Version 2
    Размер файла                             : 3,07 Гбайт
    Продолжительность                        : 1 ч. 39 м.
    Общий поток                              : 4395 Кбит/сек
    Дата кодирования                         : UTC 2018-04-15 18:07:01
    Программа кодирования                    : mkvmerge v8.3.0 ("Over the Horizon") 64bit
    Библиотека кодирования                   : libebml v1.3.1 + libmatroska v1.4.2

    Видео
    Идентификатор                            : 1
    Формат                                   : AVC
    Формат/Информация                        : Advanced Video Codec
    Профиль формата                          : Main@L3.1
    Настройки формата                        : 2 Ref Frames
    Параметр CABAC формата                   : Нет
    Параметр ReFrames формата                : 2 кадра
    Идентификатор кодека                     : V_MPEG4/ISO/AVC
    Продолжительность                        : 1 ч. 39 м.
    Битрейт                                  : 4009 Кбит/сек
    Ширина                                   : 1280 пикселей
    Высота                                   : 532 пикселя
    Соотношение сторон                       : 2,40:1
    Режим частоты кадров                     : Постоянный
    Частота кадров                           : 23,976 (24000/1001) кадра/сек
    Цветовое пространство                    : YUV
    Субдискретизация насыщенности            : 4:2:0
    Битовая глубина                          : 8 бит
    Тип развёртки                            : Прогрессивная
    Бит/(Пиксели*Кадры)                      : 0.246
    Размер потока                            : 2,80 Гбайт (91%)
    Язык                                     : English
    Default                                  : Да
    Forced                                   : Нет
    Цветовой диапазон                        : Limited
    Основные цвета                           : BT.709
    Характеристики трансфера                 : BT.709
    Коэффициенты матрицы                     : BT.709

    Аудио
    Идентификатор                            : 2
    Формат                                   : AC-3
    Формат/Информация                        : Audio Coding 3
    Идентификатор кодека                     : A_AC3
    Продолжительность                        : 1 ч. 39 м.
    Вид битрейта                             : Постоянный
    Битрейт                                  : 384 Кбит/сек
    Каналы                                   : 6 каналов
    Расположение каналов                     : Front: L C R, Side: L R, LFE
    Частота                                  : 48,0 КГц
    Частота кадров                           : 31,250 кадров/сек (1536 SPF)
    Битовая глубина                          : 16 бит
    Метод сжатия                             : С потерями
    Размер потока                            : 274 Мбайт (9%)
    Язык                                     : Russian
    Default                                  : Да
    Forced                                   : Нет

    Меню
    00:00:00.000                             : en:1
    00:01:20.000                             : en:2
    00:10:06.000                             : en:3
    00:19:48.000                             : en:4
    00:35:10.000                             : en:5
    00:45:05.000                             : en:6
    00:55:19.000                             : en:7
    01:07:24.000                             : en:8
    01:16:28.000                             : en:9
    01:25:16.000                             : en:10
    01:34:52.000                             : en:11


    Скриншоты
    [img]http://i104.fastpic.ru/big/2018/0416/51/e21fad437dd5d819fbf07b79e9196451.png[/img][img]http://i104.fastpic.ru/big/2018/0416/a6/477f4f3f87945474443b3ba47b7e3fa6.png[/img][img]http://i104.fastpic.ru/big/2018/0416/a6/3dedb82a51a8474c0e4e00a89709efa6.png[/img][img]http://i104.fastpic.ru/big/2018/0416/85/c472df8a4eaa11ba003d155854708585.png[/img][img]http://i104.fastpic.ru/big/2018/0416/de/c5d99be9d6eb671cbe822fbef217c6de.png[/img][img]http://i104.fastpic.ru/big/2018/0416/3b/bf83fdb74d872fce121f32affc383e3b.png[/img]
    Еще похожие »

    Как скачать?
    1. Качаем UTorrent версии 2.0 и выше отсюда
    2. После установки, жмем на ссылку Скачать торрент.
    3. Открываем его через utorrent.
    4. Ждем пока подключатся участники.
    5. Качаем.


    Комментарии о Ну, здравствуй, Оксана Соколова! | WEB-DL 720p
    Добавлять комментарии могут только зарегистрированные пользователи

    Зарегистрироваться или Войти


    Ближайшее в кино
    • Профессионал дата выхода 27 сентября 2018Профессионал
      Дата выхода: 27 сентября 2018
    • 650699|Человек, который убил Дон Кихота|27 сентября 2018|200|300Человек, который убил Дон Кихота
      Дата выхода: 27 сентября 2018
    • 1045777|Непрощенный|27 сентября 2018|200|300Непрощенный
      Дата выхода: 27 сентября 2018
    • 939411|Мотылек|27 сентября 2018|200|300Мотылек
      Дата выхода: 27 сентября 2018
    • 652531|Тайна дома с часами|27 сентября 2018|200|300Тайна дома с часами
      Дата выхода: 27 сентября 2018
    • 970196|Поиск|27 сентября 2018|200|300Поиск
      Дата выхода: 27 сентября 2018
    • 429363|Игрушки для взрослых|27 сентября 2018|200|300Игрушки для взрослых
      Дата выхода: 27 сентября 2018
    • 1049653|Сердце мира|27 сентября 2018|200|300Сердце мира
      Дата выхода: 27 сентября 2018
    • 794309|Букшоп|27 сентября 2018|200|300Букшоп
      Дата выхода: 27 сентября 2018
    • 1015929|3 дня с Роми Шнайдер|27 сентября 2018|200|3003 дня с Роми Шнайдер
      Дата выхода: 27 сентября 2018
    • 947047|Похитители носков|27 сентября 2018|200|300Похитители носков
      Дата выхода: 27 сентября 2018
    • 1115748|Руби и Повелитель воды|27 сентября 2018|200|300Руби и Повелитель воды
      Дата выхода: 27 сентября 2018
    • 983306|Нуреев: Его сцена – весь мир|29 сентября 2018|200|300Нуреев: Его сцена – весь мир
      Дата выхода: 29 сентября 2018
    • 463634|Веном|4 октября 2018|200|300Веном
      Дата выхода: 4 октября 2018
    • 998805|На районе|4 октября 2018|200|300На районе
      Дата выхода: 4 октября 2018
    Вверх